ИНТЕРНЫ / (Сезоны 5-6-7 / Серии 81-126) / (Makcим Пeжeмckий) [Комедия, SATRip] [2010 г.-2012г.], Комедия, SATRip]

Ответить на тему
 
Автор
Сообщение

NeliyZar ®

Пол:

Стаж: 6 лет 1 месяц

Сообщений: 3378

Репутация: 687 [+] [-]

Откуда: Донбасс

Пост 11-Июн-2012 00:30

[Цитировать] 

ИНТЕРНЫ / (Сезоны 5-6-7 / Серии 81-126)
Год выпуска: 2010-2012
Страна: Россия НТВ-Кино - 7art
Жанр: Комедия
Продолжительность: 46 серий по ~ 25 минут
Режиссер: Максим Пежемский, Заур Болотаев, Милан Килибарда, Евгений Невский.
В ролях: Иван Охлобыстин, Кристина Асмус, Илья Глинников, Александр Ильин (младший), Дмитрий Шаракоис, Один Ланд Байрон, Вадим Демчог, Светлана Пермякова, Светлана Камынина, Мария Пирогова, Елена Суркова, Татьяна Лянник, Татьяна Мухина и др..
Описание: Сериал посвящён работе молодых неопытных интернов, постоянно попадающих в нелепые ситуации. Ими руководит заведующий терапевтическим отделением — доктор Быков, постоянно над ними подшучивающий. Помогают Быкову и наблюдают за приключениями интернов его друг, доктор-венеролог Купитман, и медсестра Любовь Михайловна Скрябина, а наводит порядок в больнице главврач Анастасия Кисегач.

Доп. информация:

Съемки ведутся на цифровую камеру Red One, которая дает картинку, близкую по качеству к кино.
Ситком снимает режиссер Максим Пежемский, который уже работал с Охлобыстиным на фильме «Мама, не горюй».
Готовый материал «Интернов» проходит тщательную цветокоррекцию.
В ситкоме нет закадрового смеха, потому что он и так очень смешной.
Вместо привычной для ситкомов трехстенной декорации в огромном павильоне выстроена целая больница.
Все медицинские инструменты и приборы – настоящие. Бутафорский на площадке только туалет.
Идея ситкома принадлежит Вячеславу Дусмухаметову, одному из создателей «Универа», сценаристу фильма «Наша Russia. Яйца Судьбы» и продюсеру программы Comedy Woman на ТНТ.
Очки интерна Левина - собственность актера Дмитрия Шаракоиса. То очки его покойного дедушки. У самого Дмитрия стопроцентное зрение. В очки он вставил специальные линзы без диоптрий и в таком виде пришел на пробы «Интернов». В этом имидже его и утвердили на роль интерна Левина.
Фамилию Левин интерн-ботаник позаимствовал у реального человека – финансового продюсера сериала.
В декорациях больницы, где происходит действие «Интернов» есть туалет. Но он бутафорский – канализация не проведена. Поэтому рядом с туалетом висит предупреждение, чтобы никто из съемочной группы не вздумал им воспользоваться.
Лекарства, которые появляются в кадре – настоящие. Медицинская аппаратура тоже. Часть ее взята в аренду, часть – списана.
Коньяк, который стоит в кабинет венеролога доктора Купитмана, - самый настоящий! Правда, бутылки повернуты этикетками внутрь, чтобы не рекламировать производителя.
Когда Купитман употребляет в кадре - он пьет подкрашенный чай, а не спиртное. Кстати, иногда чай даже не успевал остыть, поэтому в некоторых сценах можно увидеть, что рюмка слегка запотевшая…
На правой руке доктора Быкова болтаются 2 самодельные фенечки (браслеты из ниток). В одной из серий выяснится, что их ему сделала дочка и он их носит уже 10 лет.
Кисегач - это не только фамилия главврача сериала, но и название одного из озер Челябинской области.
В 17-й серии хорошо видно, что у Романенко мобильный телефон Nokia E71.
В 19-й серии хорошо видно, что у Кисегач мобильный телефон Nokia 5130 XpressMusic.
Часы Быкова из сериала ИнтерныБыков носит на руке часы Nautica A43001G Gents SPETTACOLARE DUO Titanium Chronograph Flip Watch с двумя кварцевыми механизмами: верхний — обычный хронограф с тахиметрической шкалой, а нижний — 24-х часовой хронометр с ретроградной индикацией времени дополнительного часового пояса. Часы стоят примерно столько же, сколько и iPhone, который хорошо видно в 11 и 23 сериях. Также в ординаторской стоит ЖК-телевизор и был X-box 360, который был сломан Купитманом. При этом Быков часто жалуется на маленькую зарплату.
В 6-ой серии Быков играет в «S.T.A.L.K.E.R.». Это следует из сказанной им фразы: «Это свободовцы. А где Кровосос?». При этом компьтерную мышь он держит в левой руке, хотя Быков правша.
В одной из серий было видно, что у Быкова iPhone 3G.
В отличие от большинства юмористических сериалов в «Интернах» отсутствует закадровый смех, а герои в кадре часто курят.
В одной из серий Быков произносит фразу «сказочный идиот». Это является отсылкой к фильму Даун Хаус, сценаристом которого является Охлобыстин. Также он сыграл в нём одну из главных ролей.
Ивану Охлобыстину было не сложно вжиться, как говорят актеры, в образ доктора Быкова. Его отец был главврачом, эти воспоминания талантливый актер частично перенес на свою роль в сериале Интерны.
Исполнительного продюсера сериала зовут Андрей Левин. Не исключено, что фамилию для одного из интернов нарочно позаимствовали у продюсера.
В сюжете присутствуют мелкие погрешности — в терапевтическое отделение часто попадают «хирургические» больные; Быков, руководящий интернами, не является сотрудником кафедры медуниверситета или академии. Интерны специализируются по терапии, хирургии, акушерству и гинекологии, дерматовенерологии и травматологии одновременно и прочие детали, не влияющие на комедийность сюжета, а иногда и прибавляющие ему остроты.

MediaInfo:

Format : AVI
Format/Info : Audio Video Interleave
File size : 223 MiB
Duration : 24mn 36s
Overall bit rate : 1 267 Kbps
Movie name : Интерны_061
Writing application : VirtualDubMod 1.5.10.3 | www.virtualdub-fr.org || (build 2550/release)
Comment : Rip by iriston
Video
ID : 0
Format : MPEG-4 Visual
Format profile : Advanced Simple@L5
Format settings, BVOP : 1
Format settings, QPel : No
Format settings, GMC : No warppoints
Format settings, Matrix : Custom
Codec ID : XVID
Codec ID/Hint : XviD
Duration : 24mn 36s
Bit rate : 1 065 Kbps
Width : 640 pixels
Height : 368 pixels
Display aspect ratio : 16:9
Frame rate : 25.000 fps
Color space : YUV
Chroma subsampling : 4:2:0
Bit depth : 8 bits
Scan type : Progressive
Compression mode : Lossy
Bits/(Pixel*Frame) : 0.181
Stream size : 187 MiB (84%)
Writing library : XviD 64
Audio
ID : 1
Format : MPEG Audio
Format version : Version 1
Format profile : Layer 3
Codec ID : 55
Codec ID/Hint : MP3
Duration : 24mn 36s
Bit rate mode : Constant
Bit rate : 192 Kbps
Channel(s) : 2 channels
Sampling rate : 48.0 KHz
Compression mode : Lossy
Stream size : 33.8 MiB (15%)
Alignment : Aligned on interleaves
Interleave, duration : 40 ms (1.00 video frame)
Interleave, preload duration : 504 ms
Writing library : LAME3.98r
Encoding settings : -m s -V 4 -q 2 -lowpass 18.6 -b 192
Тип релиза: SATRip
Контейнер: AVI
Видео кодек: XviD
Аудио кодек: MP3 (MPEG1 Layer 3)
Видео: 640x368 (1.74:1), 25 fps, XviD build 64 ~1060 kbps avg, 0.19 bit/pixel
Аудио: 48 kHz, MPEG Layer 3, 2 ch, ~192.00 kbps avg

Скриншоты


_________________
Спорить с женщиной не так тяжело, когда понимаешь, что это бесполезно... (Михаил Мамчич)
Исправили раздачу? Отпишитесь модератору в ЛС с ссылкой на релиз.
[Торрент-статистика]
[Профиль]  [ЛС] 
Показать сообщения:    
Ответить на тему

Текущее время: Сегодня 17:16

Часовой пояс: GMT + 4



Вы не можете начинать темы
Вы не можете отвечать на сообщения
Вы не можете редактировать свои сообщения
Вы не можете удалять свои сообщения
Вы не можете голосовать в опросах
Вы не можете прикреплять файлы к сообщениям
Вы не можете скачивать файлы