Дорога на остров Пасхи / Сезон: 1 Серии: 1-16 из 16 (Всеволод Аравин) [2012, детектив, SATRip]

Ответить на тему
 
Автор
Сообщение

awk05 ®

Пол:

Стаж: 4 года 5 месяцев

Сообщений: 1352

Репутация: 275 [+] [-]

Откуда: Западная Украина Ривне

Пост 05-Дек-2013 19:41

[Цитировать] 

--Дорога на остров Пасхи-- Год выпуска: 2012
Производство:Кинокомпания “Пирамида”
Жанр:Боевик
Продолжительность: ~ 00:45:01
Субтитры: нет--Режиссёр: Всеволод Аравин--В ролях: Егор Бероев, Екатерина Олькина, Антон Шурцов, Юлия Галкина, Виталий Хаев, Иван Гордиенко, Юрий Беляев, Евгения Брик, Егор Баринов, Леонид Тимцуник, Александр Наумов, Кирилл Плетнев, Анастасия Панина, Олег Жданов, Игорь Климов, Юрий Назаров, Тимофей Бурдаков, Глеб Бурдаков, Лана Щербакова, Олег Васильков, Михаил Станкевич, Алексей Свиридов, Анатолий Кот, Елена Финогеева, Наталья Батрак, Александр Леньков, Сергей Заботин, Валентина Пустовойт, Андрей Бобров, Сергей Чекрыгин, Александр Степанов (VI), Дмитрий Саблин, Александр Филиппов (III), Анатолий Соловьев (II), Владислав Третьяк (II), Владимир Цымбал, Андрей Аверьянов, Вячеслав Титов, Дмитрий Свергунов, Ильдар Кенкерли, Владимир
Наджафов--Описание: Долгой и опасной становится дорога к счастью, если однажды сломать судьбу собственными руками. И уже не важно, расплатился ли человек за свои преступления и
раскаялся ли за свои грехи - криминальное прошлое не оставит его. Когда жизнь близких людей оказываются под угрозой, борьба за их будущее превращается в смертельно опасную игру.
1998 год. Олег Бардин мечтает вместе со своей возлюбленной Ксенией отправиться в путешествие на остров Пасхи. Единственный способ осуществить мечту – ограбить инкассаторский
броневик. План продуман безупречно. Но события принимают неожиданный оборот – во время ограбления сообщник Вадим ранит Олега, убивает Ксению и исчезает вместе с деньгами. Олег
оказывается в тюрьме.
Спустя 12 лет заключения Олег Бардин, наконец, выходит из тюрьмы. Он узнает, что на свободе его ждет настоящая семья. Беззаветно влюбленная в него одноклассница Надежда не только все эти годы преданно ждала его возвращения, но и родила ему сына – Андрея. Казалось бы, судьба дает Олегу шанс навсегда забыть о прошлом и начать новую жизнь. Но сейчас Олега обуревает только одно желание – найти Вадима и отомстить за предательство и убийство любимой женщины.
Но и месть Олегу приходится отложить до лучших времен. Оказывается, расследование дерзкого ограбления 12-летней давности продолжается. Сотрудники полиции - следователь Павел Малахов и его помощница Марина - уверены, что дело Бардина еще рано сдавать в архив.
К тому же у тюремных ворот героя встречает группа крепких парней, жаждущих получить ответ на вопрос, куда пропали похищенные им из броневика восемнадцать миллионов долларов.-- --Качество: SATRip
Формат: AVI
Видео кодек: XviD
Аудио кодек: MP3
Видео: MPEG4, XviD, 720x400 (16/9), 25.000 fps, 1 556 Kbps (0.216 bit/pixel)
Аудио: MP3, 48.0 KHz, 2 ch, 192 Kbps, CBR--Реклама отсутствует!--

MI

General
Complete name : D:\Doroga.na.ostrov.Pashi.2012.SATRip\Doroga.na.ostrov.Pashi.01.2012.SATRip.KinozalSAT.avi
Format : AVI
Format/Info : Audio Video Interleave
File size : 550 MiB
Duration : 43mn 48s
Overall bit rate : 1 755 Kbps
Writing application : VirtualDubMod 1.5.4.1 (build 2178/release)
Writing library : VirtualDubMod build 2178/release
Video
ID : 0
Format : MPEG-4 Visual
Format profile : Advanced Simple@L5
Format settings, BVOP : 1
Format settings, QPel : No
Format settings, GMC : No warppoints
Format settings, Matrix : Custom
Codec ID : XVID
Codec ID/Hint : XviD
Duration : 43mn 48s
Bit rate : 1 556 Kbps
Width : 720 pixels
Height : 400 pixels
Display aspect ratio : 16:9
Frame rate : 25.000 fps
Color space : YUV
Chroma subsampling : 4:2:0
Bit depth : 8 bits
Scan type : Progressive
Compression mode : Lossy
Bits/(Pixel*Frame) : 0.216
Stream size : 488 MiB (89%)
Writing library : XviD 64
Audio
ID : 1
Format : MPEG Audio
Format version : Version 1
Format profile : Layer 3
Mode : Joint stereo
Mode extension : MS Stereo
Codec ID : 55
Codec ID/Hint : MP3
Duration : 43mn 48s
Bit rate mode : Constant
Bit rate : 192 Kbps
Channel(s) : 2 channels
Sampling rate : 48.0 KHz
Compression mode : Lossy
Stream size : 60.2 MiB (11%)
Alignment : Aligned on interleaves
Interleave, duration : 80 ms (2.00 video frames)
Interleave, preload duration : 504 ms

Скриншоты




_________________


Последний раз редактировалось: awk05 (2013-12-06 00:26), всего редактировалось 1 раз
[Торрент-статистика]
[Профиль]  [ЛС] 

nova1980

Пол:

Стаж: 5 лет

Сообщений: 820

Репутация: 523 [+] [-]

Откуда: Одесса Мама

Пост 05-Дек-2013 22:56 (спустя 3 часа)

[Цитировать] 

awk05, Скриншоты не открываются!

_________________
Мои Раздачи
[Торрент-статистика]
[Профиль]  [ЛС] 
Показать сообщения:    
Ответить на тему

Текущее время: Сегодня 19:42

Часовой пояс: GMT + 4



Вы не можете начинать темы
Вы не можете отвечать на сообщения
Вы не можете редактировать свои сообщения
Вы не можете удалять свои сообщения
Вы не можете голосовать в опросах
Вы не можете прикреплять файлы к сообщениям
Вы не можете скачивать файлы