Балабол (Одинокий волк Саня) / Сезон: 1 / Серии: 1-16 из 16 (Владимир Мельник (II)) [2013, иронический детектив., SATRip]

Ответить на тему
 
Автор
Сообщение

awk05 ®

Пол:

Стаж: 4 года 5 месяцев

Сообщений: 1352

Репутация: 275 [+] [-]

Откуда: Западная Украина Ривне

Пост 05-Дек-2013 19:22

[Цитировать] 

--Балабол (Одинокий волк Саня)-- Год выпуска: 2013
Производство: DT Production
Жанр: иронический детектив.
Продолжительность: 00:44:00
Субтитры: Нет--Режиссёр: Владимир Мельник (II)--В ролях: Константин Юшкевич, Вадим Андреев, Гоша Куценко, Оксана Сташенко, Вадим Дорофеев, Мария Пирогова, Александр Самойлов, Инга Оболдина, Ирина Низина, Иван Агапов, Карина Разумовская, Алексей Михайлов (II), Тимур Ефременков, Александр Числов, Виктор Конухин, Влад Канопка, Дмитрий Мазуров, Игорь Старосельцев, Дмитрий Блажко, Ольга Дибцева--Описание: Каждые две серии иронического детектива «Одинокий волк Саня» – отдельная история, в которой бравый провинциальный опер, «одинокий волк» с несерьезным именем Саня, распутывает безнадежные на взгляд его коллег преступления.
Детективная составляющая – основа каждой истории, но внутри сюжета – столкновение характеров героев, их семейные дела, изменения, которые происходят с каждым из них по ходу действия.
Зрители увидят, как мужает и превращается из наивного и избалованного юнца в настоящего профессионала стажер Карандышев по прозвищу Кузнечик; как в своих чувствах к бывшей жене разбирается сам Саня; как любовь и внимание отца пытается завоевать дочь опера Маша.--Реклама отсутствует!--Качество: SATRip
Формат: AVI
Видео кодек: XviD
Аудио кодек: MP3
Видео: 720x384, 25 fps, XviD, ~1650 kbps, 0.211 bit/pixel
Аудио: 48 kHz, MPEG Layer 3, 2 ch, 192 kbps-- --Кинопоиск--

MI

Общее
Полное имя : R:\Сериалы\Балабол (2013)\Балабол.(01.seriya).2013.XviD.SATRip.by.simka.avi
Формат : AVI
Формат/Информация : Audio Video Interleave
Размер файла : 612 Мбайт
Продолжительность : 43 м.
Общий поток : 1978 Кбит/сек
Программа кодирования : VirtualDubModRus 1.5.10.2 (build 2542/release)
Библиотека кодирования : VirtualDubMod build 2542/release
Видео
Идентификатор : 0
Формат : MPEG-4 Visual
Профиль формата : Advanced Simple@L5
Параметр BVOP формата : 1
Параметр QPel формата : Нет
Параметр GMC формата : Без точки перехода
Параметр матрицы формата : Default (H.263)
Идентификатор кодека : XVID
Идентификатор кодека/Подсказка : XviD
Продолжительность : 43 м.
Битрейт : 1776 Кбит/сек
Ширина : 720 пикселей
Высота : 384 пикселя
Соотношение сторон : 1,85:1
Частота кадров : 25,000 кадров/сек
Цветовое пространство : YUV
Субдискретизация насыщенности : 4:2:0
Битовая глубина : 8 бит
Тип развёртки : Прогрессивная
Метод сжатия : С потерями
Бит/(Пиксели*Кадры) : 0.257
Размер потока : 550 Мбайт (90%)
Библиотека кодирования : XviD 1.2.1 (UTC 2008-12-04)
Аудио
Идентификатор : 1
Формат : MPEG Audio
Версия формата : Version 1
Профиль формата : Layer 3
Режим : Joint stereo
Расширение режима : MS Stereo
Идентификатор кодека : 55
Идентификатор кодека/Подсказка : MP3
Продолжительность : 43 м.
Вид битрейта : Постоянный
Битрейт : 192 Кбит/сек
Каналы : 2 канала
Частота : 48,0 КГц
Метод сжатия : С потерями
Размер потока : 59,5 Мбайт (10%)
Выравнивание : Соединение по промежуткам
Продолжительность промежутка : 40 мс. (1,00 видеокадр)
Время предзагрузки промежутка : 504 мс.
Библиотека кодирования : LAME3.99r
Настройки программы : -m j -V 4 -q 2 -lowpass 18.6 -b 192

Скриншоты

Внимание! Раздача ведётся путём добавления новых выпусков

При каждом добавлении создаётся новый торрент. Чтобы начать докачку нового выпуска, пользователям необходимо сделать следующее:
● остановить скачивание;
● удалить старый торрент у себя из клиента (старые выпуски удалять не надо);
● скачать новый торрент и запустить его у себя в клиенте вместо старого, при этом указать клиенту путь в старую папку куда и должно происходить скачивание новых выпусков;
● ваш клиент при запуске должен произвести хеширование (проверку) старой папки (если не производит сам - помогите ему сделать это), и будет докачивать только те выпуски, которых у вас ещё нет. Старые выпуски при этом не удаляются, а продолжают раздаваться!
● Eсли вы уже удалили старые выпуски, то предотвратить повторную закачку старых выпусков можно, отжав галочку в соответсвующих местах при запуске нового торрента.

_________________
[Торрент-статистика]
[Профиль]  [ЛС] 
Показать сообщения:    
Ответить на тему

Текущее время: Сегодня 18:20

Часовой пояс: GMT + 4



Вы не можете начинать темы
Вы не можете отвечать на сообщения
Вы не можете редактировать свои сообщения
Вы не можете удалять свои сообщения
Вы не можете голосовать в опросах
Вы не можете прикреплять файлы к сообщениям
Вы не можете скачивать файлы