Короли игры (12 серий из 12) (Максим Субботин) [2008 г., Приключения / Комедия, DVDRip]

Ответить на тему
 
Автор
Сообщение

awk05 ®

Пол:

Стаж: 4 года 5 месяцев

Сообщений: 1352

Репутация: 275 [+] [-]

Откуда: Западная Украина Ривне

Пост 05-Дек-2013 15:25

[Цитировать] 

--Короли игры--
Год выпуска: 2008
Страна: Россия
Жанр: Приключения / Комедия
Продолжительность: 12 x ~ 00:50:00--Режиссер: Максим Субботин--В ролях: Дмитрий Шевченко, Алексей Завьялов, Оскар Кучера, Александр Самойленко, Игорь Золотовицкий, Валерий Гаркалин, Олег Комаров--Описание: Максим, Степан, Роман и Кеша — сплоченная команда вершителей оригинальных дел. Они организовали бюро, в которое может обратиться любой человек, которому жизненна необходима нестандартная помощь.
Дружная четверка, определившись с задачей, пытается реализовать "спасательные (обманные) операции". Как тайные агенты они выслеживают обидчиков своих клиентов, разрабатывают и осуществляют хитроумные комбинации, восстанавливая справедливость или помогая в решении реальных проблем.
С течением времени, по мере наработки опыта, их авантюры становятся все хитроумнее и изобретательнее, пути решения все невероятнее, актерское исполнение раскованнее, а сеть клиентов все обширнее.--Качество: DVDRip
Формат: AVI
Видео кодек: XviD
Аудио кодек: AC3
Видео: 640x480 (1.33:1), 25 fps, XviD build 55, 1532 kbps avg, 0.20 bit/pixel
Аудио: 48 kHz, AC3 Dolby Digital, 2/0 (L,R) ch, 128.00 kbps avg--

MediaInfo

General
Complete name : E:\Сериалы новые\Koroli.igri.(12.serii.iz.12).2008.XviD.DVDRip.kinozal.tv\Koroli.igri.(01.seriya.iz.12).2008.XviD.DVDRip.kinozal.tv.avi
Format : AVI
Format/Info : Audio Video Interleave
File size : 701 MiB
Duration : 58mn 47s
Overall bit rate : 1 667 Kbps
Writing application : VirtualDubMod 1.5.4.1 (build 2178/release)
Writing library : VirtualDubMod build 2178/release
Video
ID : 0
Format : MPEG-4 Visual
Format profile : Advanced Simple@L5
Format settings, BVOP : 1
Format settings, QPel : No
Format settings, GMC : No warppoints
Format settings, Matrix : Custom
Codec ID : XVID
Codec ID/Hint : XviD
Duration : 58mn 47s
Bit rate : 1 464 Kbps
Width : 640 pixels
Height : 480 pixels
Display aspect ratio : 4:3
Frame rate : 25.000 fps
Color space : YUV
Chroma subsampling : 4:2:0
Bit depth : 8 bits
Scan type : Progressive
Compression mode : Lossy
Bits/(Pixel*Frame) : 0.191
Stream size : 616 MiB (88%)
Writing library : XviD 1.3.0.dev55
Audio
ID : 1
Format : AC-3
Format/Info : Audio Coding 3
Mode extension : CM (complete main)
Format settings, Endianness : Big
Codec ID : 2000
Duration : 58mn 47s
Bit rate mode : Constant
Bit rate : 128 Kbps
Channel count : 2 channels
Channel positions : Front: L R
Sampling rate : 48.0 KHz
Bit depth : 16 bits
Compression mode : Lossy
Stream size : 53.8 MiB (8%)
Alignment : Aligned on interleaves
Language : Russian

_________________
[Торрент-статистика]
[Профиль]  [ЛС] 
Показать сообщения:    
Ответить на тему

Текущее время: Сегодня 06:22

Часовой пояс: GMT + 4



Вы не можете начинать темы
Вы не можете отвечать на сообщения
Вы не можете редактировать свои сообщения
Вы не можете удалять свои сообщения
Вы не можете голосовать в опросах
Вы не можете прикреплять файлы к сообщениям
Вы не можете скачивать файлы