Химик / Серии: 1-8 из 8 (Всеволод Плоткин) [2010, Детектив, DVDRip]

Ответить на тему
 
Автор
Сообщение

awk05 ®

Пол:

Стаж: 4 года 5 месяцев

Сообщений: 1352

Репутация: 275 [+] [-]

Откуда: Западная Украина Ривне

Пост 05-Дек-2013 14:55

[Цитировать] 

--Химик-- Год выпуска: 2010
Производство: киностудия "Арк-фильм"
Жанр: Детектив
Продолжительность: ~ 00:48 серия--Режиссёр: Всеволод Плоткин--В ролях: Юрий Чурсин, Егор Бероев, Игорь Костолевский, Юрий Беляев, Юозас Будрайтис, Ольга Родионова, Светлана Дикаанидас, Тамара Сёмина, Владимир Конкин, Александр Шестопалов, Василий Шлыков, Вячеслав Агашкин, Анастасия Камм, Елена Кутырева, Евгения Лапова, Артем Назаров, Вера Фалютинская, Марина Штода--Описание: Фильм основан на реальных событиях.
ФСБ получает информацию о появлении уникальных ядовитых препаратов, производимых кустарным способом где-то в Московской области. После многочисленных проверок выясняется, что одновременно с ядом кто-то производит уникальную взрывчатку, используемую криминальными структурами...
Герой фильма - сотрудник ФСБ Михаил (Егор Бероев) начинает следствие по этому делу. Гибель его невесты в результате действия смертоносного препарата превращает расследование в вопрос чести. Противник Михаила - Дмитрий (Юрий Чурсин) - блестящий химик, который, по определенным причинам не смог применить свой талант в мирных целях и оказался в поле зрения структур, стоящих вне закона.
Подмена ориентиров приводит к тому, что молодой человек становится на пагубный путь... Возомнив себя вершителем человеческих судеб, Дмитрий упивается своим мнимым могуществом, а свои знания и талант ученого использует для достижения сомнительных целей.--Доп. информация:
Другое название: Черный ангел--Качество: DVDRip
Формат: AVI
Видео кодек: XviD
Аудио кодек: MP3
Видео: 704x400 (1.76:1), 25 fps, XviD build 50 ~1442 kbps avg, 0.20 bit/pixel
Аудио: 48 kHz, MPEG Layer 3, 2 ch, ~128.00 kbps avg

MediaInfo

General
Complete name : E:\Сериалы новые\Химик.DVDRip-antonios\Химик.01.DVDRip-antonios.avi
Format : AVI
Format/Info : Audio Video Interleave
File size : 557 MiB
Duration : 49mn 17s
Overall bit rate : 1 580 Kbps
Writing application : VirtualDubMod 1.5.10.2 (build 2540/release)
Writing library : VirtualDubMod build 2540/release
Video
ID : 0
Format : MPEG-4 Visual
Format profile : Advanced Simple@L5
Format settings, BVOP : 2
Format settings, QPel : No
Format settings, GMC : No warppoints
Format settings, Matrix : Default (MPEG)
Codec ID : XVID
Codec ID/Hint : XviD
Duration : 49mn 17s
Bit rate : 1 442 Kbps
Width : 704 pixels
Height : 400 pixels
Display aspect ratio : 16:9
Frame rate : 25.000 fps
Color space : YUV
Chroma subsampling : 4:2:0
Bit depth : 8 bits
Scan type : Progressive
Compression mode : Lossy
Bits/(Pixel*Frame) : 0.205
Stream size : 508 MiB (91%)
Writing library : XviD 1.2.1 (UTC 2008-12-04)
Audio
ID : 1
Format : MPEG Audio
Format version : Version 1
Format profile : Layer 3
Codec ID : 55
Codec ID/Hint : MP3
Duration : 49mn 17s
Bit rate mode : Constant
Bit rate : 128 Kbps
Channel count : 2 channels
Sampling rate : 48.0 KHz
Compression mode : Lossy
Stream size : 45.1 MiB (8%)
Alignment : Aligned on interleaves
Interleave, duration : 40 ms (1.00 video frame)
Interleave, preload duration : 504 ms
Writing library : LAME3.98r
Encoding settings : -m s -V 4 -q 2 -lowpass 17 -b 128

_________________
[Торрент-статистика]
[Профиль]  [ЛС] 
Показать сообщения:    
Ответить на тему

Текущее время: Сегодня 22:17

Часовой пояс: GMT + 4



Вы не можете начинать темы
Вы не можете отвечать на сообщения
Вы не можете редактировать свои сообщения
Вы не можете удалять свои сообщения
Вы не можете голосовать в опросах
Вы не можете прикреплять файлы к сообщениям
Вы не можете скачивать файлы