Человек ниоткуда / Сезон: 1 / Серии: 1-16 из 16 (Юрий Попович, Евгений Малков, Илья Казанков) [2012, Детектив, Криминал, SATRip]

Ответить на тему
 
Автор
Сообщение

awk05 ®

Пол:

Стаж: 4 года 5 месяцев

Сообщений: 1352

Репутация: 275 [+] [-]

Откуда: Западная Украина Ривне

Пост 05-Дек-2013 02:42

[Цитировать] 

--Человек ниоткуда-- Год выпуска: 2012
Жанр: Криминал, Детектив
Выпущено: Россия, Мотор фильм студия по заказу НТВ
Продолжительность: ~0:44:00
Субтитры: нет--Режиссер: Юрий Попович, Евгений Малков, Илья Казанков--В ролях: Игорь Лифанов, Марина Петренко, Александр Тютин, Иван Шабалтас, Александр Кузнецов, Виктория Герасимова, Дарья Андреева, Игорь Филиппов, Владимир Наджафов, Наталия Лесниковская, Дмитрий Ермак, Бесо Гатаев, Денис Дружинин, Андрей Муравьёв, Андрей Кравчук (II), Николай Зазуля, Алексей Костерев, Александр Сергеев (IV), Александра Булычёва, Андрей Железный, Ирина Савицкова, Саркис Амирзян, Рустам Абдрашитов, Николай Бутенин, Василий Заболотний--Описание: Агент полицейской разведки Сергей Кутепов внедряется в преступную наркогруппировку, возглавляемую бывшим руководителем отдела по борьбе с незаконным оборотом наркотиков Потаповым. Кроме сбора доказательств преступлений Потапова и его окружения, Сергей преследует еще одну цель – он хочет найти в криминальной среде исполнителя и заказчика убийства своей жены Марины.--Качество: SATRip
Формат: AVI
Видео кодек: XviD
Аудио кодек: MP3
Видео: 720x400 (1.80:1), 25 fps, XviD build 50 ~1542 kbps avg, 0.21 bit/pixel
Аудио: 48 kHz, MPEG Layer 3, 2 ch, ~192.00 kbps avg--

MI

General
Complete name : V:\ftp4\Videos\Человек.ниоткуда.02.seriya.2013.SATRip.Files-x.avi
Format : AVI
Format/Info : Audio Video Interleave
File size : 550 MiB
Duration : 44mn 4s
Overall bit rate : 1 744 Kbps
Writing application : VirtualDubMod 1.5.10.3 | www.virtualdub-fr.org || (build 2550/release)
Writing library : VirtualDubMod build 2550/release
Video
ID : 0
Format : MPEG-4 Visual
Format profile : Advanced Simple@L5
Format settings, BVOP : 1
Format settings, QPel : No
Format settings, GMC : No warppoints
Format settings, Matrix : Default (H.263)
Codec ID : XVID
Codec ID/Hint : XviD
Duration : 44mn 4s
Bit rate : 1 543 Kbps
Width : 720 pixels
Height : 400 pixels
Display aspect ratio : 16:9
Frame rate : 25.000 fps
Color space : YUV
Chroma subsampling : 4:2:0
Bit depth : 8 bits
Scan type : Progressive
Compression mode : Lossy
Bits/(Pixel*Frame) : 0.214
Stream size : 486 MiB (88%)
Writing library : XviD 1.2.1 (UTC 2008-12-04)
Audio
ID : 1
Format : MPEG Audio
Format version : Version 1
Format profile : Layer 3
Codec ID : 55
Codec ID/Hint : MP3
Duration : 44mn 4s
Bit rate mode : Constant
Bit rate : 192 Kbps
Channel(s) : 2 channels
Sampling rate : 48.0 KHz
Compression mode : Lossy
Stream size : 60.5 MiB (11%)
Alignment : Aligned on interleaves
Interleave, duration : 40 ms (1.00 video frame)
Interleave, preload duration : 504 ms
Writing library : LAME3.98r
Encoding settings : -m s -V 4 -q 2 -lowpass 18.6 -b 192

Скриншоты


_________________
[Торрент-статистика]
[Профиль]  [ЛС] 
Показать сообщения:    
Ответить на тему

Текущее время: Сегодня 08:39

Часовой пояс: GMT + 4



Вы не можете начинать темы
Вы не можете отвечать на сообщения
Вы не можете редактировать свои сообщения
Вы не можете удалять свои сообщения
Вы не можете голосовать в опросах
Вы не можете прикреплять файлы к сообщениям
Вы не можете скачивать файлы