Кулинар-2 / Сезон 2 / Серии: 1-20 из 20 (Андрей Иванов (VII)) [2013, Боевик, WEB-DL (720p)]

Ответить на тему
 
Автор
Сообщение

awk05 ®

Пол:

Стаж: 4 года 5 месяцев

Сообщений: 1352

Репутация: 275 [+] [-]

Откуда: Западная Украина Ривне

Пост 03-Дек-2013 22:27

[Цитировать] 

--Кулинар-2-- Год выпуска: 2013
Производство: Star Media при участии «Грин-фильм» по заказу РЕН ТВ
Жанр: Боевик
Продолжительность: 00:45:00
Субтитры: нет--Режиссёр: Андрей Иванов (VII)--В ролях: Игорь Ботвин, Роман Агеев, Сергей Гамов, Михаил Батуев, Анна Григорчук, Анна Донченко, Александр Куликов (III), Дмитрий Гульнев, Регина Ацапкина, Александр Петров (X), Екатерина Рябова, Михаил Сидаш, Александр Загребин, Алексей Симонов, Никита Рогов--Описание: Феликс Малинин живёт в Санкт-Петербурге. Среди немногочисленных друзей и знакомых он слывёт неплохим парнем, замкнутым чудаком, постоянно пропадающим в служебных командировках. Плюс у него не совсем обычное пристрастие: он очень любит готовить, причем делает это по-настоящему здорово. На самом деле Феликс служит в ОРБ МВД (оперативно-розыскное бюро). О нём знают лишь несколько человек из руководства службы. К выполнению каждого задания он подходит с особым вкусом, будто готовит очередное блюдо и даже для каждой своей операции придумывает кулинарное название. За что и получил оперативный псевдоним «Кулинар». Его работа — оперативное внедрение и сбор информации обо всём, что может представлять интерес для правоохранительных органов. Он мастер перевоплощения, артистичен, дерзок, обладает аналитическим складом ума, интеллектуален и способен быстро адаптироваться практически к любой окружающей среде. Стоит ли говорить, что в работе ему порой приходится прибегать к не совсем законным методам, на которые руководство закрывает глаза… если результат положительный.--Качество: WEB-DL (720p)
Формат: MKV
Видео кодек: AVC
Аудио кодек: AC-3
Видео: AVC 1280x720, 16:9, ~ 1307 kbps, 25.000fps, 0.057 bit/pixel
Аудио: AC-3, 2 канала, 44,1 КГц, ~192 kbps, 16 bits-- --

MediaInfo

General
Unique ID : 223069301704474609302490392261676986681 (0xA7D195B45053729DA76D11595A737139)
Complete name : E:\Сериалы новые\Kulinar-2.2013.WEB-DL.(720p).Nikolspup\Kulinar.(2.sezon.01.seriya.iz.20).2013.WEB-DL.(720p).Nikolspup.mkv
Format : Matroska
Format version : Version 4 / Version 2
File size : 532 MiB
Duration : 48mn 40s
Overall bit rate : 1 529 Kbps
Encoded date : UTC 2013-12-02 21:40:53
Writing application : mkvmerge v6.3.0 ('You can't stop me!') built on Jun 28 2013 20:09:41
Writing library : libebml v1.3.0 + libmatroska v1.4.0
Video
ID : 1
Format : AVC
Format/Info : Advanced Video Codec
Format profile : High@L3.1
Format settings, CABAC : Yes
Format settings, ReFrames : 1 frame
Codec ID : V_MPEG4/ISO/AVC
Duration : 48mn 40s
Bit rate : 1 307 Kbps
Width : 1 280 pixels
Height : 720 pixels
Display aspect ratio : 16:9
Frame rate mode : Constant
Frame rate : 25.000 fps
Color space : YUV
Chroma subsampling : 4:2:0
Bit depth : 8 bits
Scan type : Progressive
Bits/(Pixel*Frame) : 0.057
Stream size : 455 MiB (85%)
Default : Yes
Forced : No
Audio
ID : 2
Format : AC-3
Format/Info : Audio Coding 3
Mode extension : CM (complete main)
Format settings, Endianness : Big
Codec ID : A_AC3
Duration : 48mn 40s
Bit rate mode : Constant
Bit rate : 192 Kbps
Channel count : 2 channels
Channel positions : Front: L R
Sampling rate : 44.1 KHz
Bit depth : 16 bits
Compression mode : Lossy
Stream size : 66.8 MiB (13%)
Default : Yes
Forced : No

Внимание ! Раздача ведётся путём добавления новых серий

Внимание! Раздача ведётся путём добавления новых серий; при каждом добавлении создётся новый торрент. Чтобы начать докачку новой серии, пользователям необходимо сделать следующее:
(1) остановить скачивание,
(2) удалить старый торрент у себя из клиента (старые серии удалять не надо),
(3) скачать новый торрент и запустить его у себя в клиенте вместо старого, при этом указать клиенту путь в старую папку куда и должно происходить скачивание новых серий.
Ваш клиент при этом должен произвести хеширование (проверку) старой папки (если не производит сам - помогите ему сделать это), и будет докачивать только те серии которых у вас ещё нет. Старые серии при этом не удаляются, а продолжают раздаваться!
Eсли вы уже удалили старые серии, то предотвратить повторную закачку старых серий можно, отжав галочку в соответсвующих местах при запуске нового торрента. По возможности, желательно не удалять старые серии как можно дольше чтобы релизёр не столько продолжал раздавать старые серии, а смог сконцентрироваться на новых.

Скриншоты


_________________
[Торрент-статистика]
[Профиль]  [ЛС] 
Показать сообщения:    
Ответить на тему

Текущее время: Сегодня 08:38

Часовой пояс: GMT + 4



Вы не можете начинать темы
Вы не можете отвечать на сообщения
Вы не можете редактировать свои сообщения
Вы не можете удалять свои сообщения
Вы не можете голосовать в опросах
Вы не можете прикреплять файлы к сообщениям
Вы не можете скачивать файлы