ЛЕКТОР / Серии: 8 из 8 (Вадим Шмелев) [2012, Детектив, BDRip]

Ответить на тему
 
Автор
Сообщение

awk05 ®

Пол:

Стаж: 4 года 5 месяцев

Сообщений: 1352

Репутация: 275 [+] [-]

Откуда: Западная Украина Ривне

Пост 29-Ноя-2013 02:02

[Цитировать] 

--ЛЕКТОР--
Год выпуска: 2012
Производство
: Россия, "Студия Анкор"
Жанр: Детектив
Продолжительность: ~00:45:00--Режиссёр: Вадим Шмелев--В ролях: Дмитрий Певцов, Фёдор Бондарчук, Екатерина Гусева, Алексей Макаров, Даниил Спиваковский, Игорь Верник, Андрей Руденский, Александр Носик, Ольга Филиппова, Азиз Бейшеналиев--Описание: Взрыв машины в центре Москвы. Двойной агент в недрах российских спецслужб. Международный торговец оружием «под колпаком» у МИ-6. Отравленный в Лондоне диссидент. Монах из Косово, спасающий уникальную икону. Американские ПРО в Восточной Европе. Расстрелянный в Варшаве террорист. Знаменитый российский физик в центре политического скандала. Опасный преступник, живущий в Таллинне под чужим именем и под чужим лицом. Все это – «безумный» мир вокруг них. Он – профессор политологии. Она – «свободная» художница. А между ними странное чувство… очень похожее на любовь.--Качество: BDRip
Формат: AVI
Видео кодек: XviD
Аудио кодек: AC3
Видео: MPEG4, XviD, 720x400 (16/9), 23.976 fps, 1 673 Kbps (0.242 bit/pixel)
Аудио: AC-3, 48.0 KHz, 6 ch, 448 Kbps, CBR-- --

MI

General
Complete name : Lektor.(8.seriy.iz.8).2011.XviD.HDRip.IRONCLUB\Lektor.(1.seriya.iz.8).2011.XviD.HDRip.IRONCLUB.avi
Format : AVI
Format/Info : Audio Video Interleave
File size : 701 MiB
Duration : 45mn 59s
Overall bit rate : 2 130 Kbps
Movie name : LektoR.2011.O.HDRip.1s.IRONCLUB
Writing application : VirtualDubMod 1.5.10.3 | www.virtualdub-fr.org || (build 2550/release)
Video
ID : 0
Format : MPEG-4 Visual
Format profile : Advanced Simple@L5
Format settings, BVOP : 2
Format settings, QPel : No
Format settings, GMC : No warppoints
Format settings, Matrix : Custom
Codec ID : XVID
Codec ID/Hint : XviD
Duration : 45mn 59s
Bit rate : 1 673 Kbps
Width : 720 pixels
Height : 400 pixels
Display aspect ratio : 16:9
Frame rate : 23.976 fps
Color space : YUV
Chroma subsampling : 4:2:0
Bit depth : 8 bits
Scan type : Progressive
Compression mode : Lossy
Bits/(Pixel*Frame) : 0.242
Stream size : 550 MiB (79%)
Writing library : XviD 1.2.1 (UTC 2008-12-04)
Audio
ID : 1
Format : AC-3
Format/Info : Audio Coding 3
Mode extension : CM (complete main)
Codec ID : 2000
Duration : 45mn 59s
Bit rate mode : Constant
Bit rate : 448 Kbps
Channel(s) : 6 channels
Channel positions : Front: L C R, Side: L R, LFE
Sampling rate : 48.0 KHz
Bit depth : 16 bits
Compression mode : Lossy
Stream size : 147 MiB (21%)
Alignment : Split accross interleaves
Interleave, duration : 42 ms (1.00 video frame)
Interleave, preload duration : 500 ms

Скриншоты





_________________
[Торрент-статистика]
[Профиль]  [ЛС] 
Показать сообщения:    
Ответить на тему

Текущее время: Сегодня 10:10

Часовой пояс: GMT + 4



Вы не можете начинать темы
Вы не можете отвечать на сообщения
Вы не можете редактировать свои сообщения
Вы не можете удалять свои сообщения
Вы не можете голосовать в опросах
Вы не можете прикреплять файлы к сообщениям
Вы не можете скачивать файлы