Крик совы / Особые полномочия (1-10 серии из 10) (Олег Погодин) [2013 г., Детектив, Криминал., SATRip]

Ответить на тему
 
Автор
Сообщение

Сфинксик ®

Пол:

Стаж: 3 года 6 месяцев

Сообщений: 1661

Репутация: 1032 [+] [-]

Откуда: г.Раменское

Пост 16-Ноя-2013 17:50

[Цитировать] 

Крик совы / Особые полномочия (1-10 серии из 10)
Год выпуска: 2013
Страна: Россия, кинокомпания "Щука", ФАБЕРЖЕ ПРОДАКШН
Жанр: Детектив, Криминал.
Продолжительность: 10 серий по 50 мин.
Режиссер: Олег Погодин
Описание: С1957 год, время хрущевской "оттепели". Городок Остров Псковской области сотрясает череда дерзких преступлений. При стычке бандитов с правоохранительными органами тяжело ранен один из лучших сотрудников местной милиции – капитан Юрий Сиротин. В бессознательном состоянии он разговаривает по-немецки, что приводит к служебному расследованию, которое поручено вести сотруднику областного ГБ Ивану Митину. В Острове ему приходится взаимодействовать с майором милиции Андреем Балахниным – лучшим другом подозреваемого Сиротина. Балахнин и Митин, не слишком симпатизирующие друг другу, влюбляются в одну женщину – работницу почты Нину. Расследование вытаскивает на свет множество мучительных тайн, которыми пронизана жизнь обитателей Острова со времен войны.
Тип релиза: SATRip
Контейнер: AVI
Видео кодек: XviD
Аудио кодек: MP3 (MPEG1 Layer 3)
Видео: 704x400 (1.80:1), 25 fps, XviD MPEG-4 1897 kbps
Аудио: 48 kHz, MPEG Layer 3, 2 ch, 192.00 kbps

MediaInfo

Формат : AVI
Формат/Информация : Audio Video Interleave
Размер файла : 422 Мбайт
Продолжительность : 51 м.
Общий поток : 1149 Кбит/сек
Программа кодирования : VirtualDubModRus 1.5.10.2 (build 2542/release)
Библиотека кодирования : VirtualDubMod build 2542/release
Видео
Идентификатор : 0
Формат : MPEG-4 Visual
Профиль формата : Advanced Simple@L5
Параметр BVOP формата : 2
Параметр QPel формата : Нет
Параметр GMC формата : Без точки перехода
Параметр матрицы формата : Default (H.263)
Режим смешивания : Сжатый битовый поток
Идентификатор кодека : XVID
Идентификатор кодека/Подсказка : XviD
Продолжительность : 51 м.
Битрейт : 1897 Кбит/сек
Ширина : 704 пикселей
Высота : 400 пикселей
Соотношение сторон : 16:9
Частота кадров : 25,000 кадров/сек
Цветовое пространство : YUV
Субдискретизация насыщенности : 4:2:0
Битовая глубина : 8 бит
Тип развёртки : Прогрессивная
Метод сжатия : С потерями
Бит/(Пиксели*Кадры) : 0.140
Размер потока : 371 Мбайт (88%)
Библиотека кодирования : XviD 64
Аудио
Идентификатор : 1
Формат : MPEG Audio
Версия формата : Version 1
Профиль формата : Layer 3
Режим : Joint stereo
Идентификатор кодека : 55
Идентификатор кодека/Подсказка : MP3
Продолжительность : 51 м.
Вид битрейта : Постоянный
Битрейт : 192 Кбит/сек
Каналы : 2 канала
Частота : 48,0 КГц
Метод сжатия : С потерями
Размер потока : 47,0 Мбайт (11%)
Выравнивание : Соединение по промежуткам
Продолжительность промежутка : 40 мс. (1,00 видеокадр)
Время предзагрузки промежутка : 504 мс.
Библиотека кодирования : LAME3.99
Настройки программы : -m j -V 4 -q 2 -lowpass 17 -b 128

В главных ролях









Скриншоты











_________________
ЕСЛИ НЕТ СИДОВ НА РАЗДАЧЕ СТУЧИТЕ В ЛИЧКУ В ТЕЧЕНИИ СУТОК ВОССТАНОВЛЮ!!!!
[Торрент-статистика]
[Профиль]  [ЛС] 

Paramound

Стаж: 3 года 1 месяц

Сообщений: 15

Репутация: -4 [+] [-]

Пост 16-Ноя-2013 17:55 (спустя 4 минуты)

[Цитировать] 

Ну думаю оформил все правильно, всем кто пропустил этот сериал на первом центральном качать и смотреть, очень захватывающий сюжет.


Последний раз редактировалось: Paramound (2013-11-16 18:06), всего редактировалось 1 раз
[Торрент-статистика]
[Профиль]  [ЛС] 

Paramound

Стаж: 3 года 1 месяц

Сообщений: 15

Репутация: -4 [+] [-]

Пост 16-Ноя-2013 18:01 (спустя 6 минут)

[Цитировать] 

Да и еще, на раздачи долго стоять не смогу, так что кто скачал не уходите с раздачи пожалуйста.
[Торрент-статистика]
[Профиль]  [ЛС] 

Paramound

Стаж: 3 года 1 месяц

Сообщений: 15

Репутация: -4 [+] [-]

Пост 16-Ноя-2013 21:16 (спустя 3 часа)

[Цитировать] 

Смотрю желающих нет, видно все по ящику посмотрели. Тогда без претензий, в начале недели
ее закрою, чтоб не висела пустушка.
[Торрент-статистика]
[Профиль]  [ЛС] 

sota767

Пол:

Стаж: 4 года 7 месяцев

Сообщений: 339

Репутация: 223 [+] [-]

Откуда: Нижний Новгород

Пост 16-Ноя-2013 21:57 (спустя 41 минута)

[Цитировать] 

Не торопись, суббота же. Не все еще дома. Я завтра скачаю.

_________________
Когда- то я была ангелом...Потом потеряла крылья и пересела на метлу...А что? И скорость повыше и тюнинг в перспективе.
причиняю пользу, наношу добро
[Торрент-статистика]
[Профиль]  [ЛС] 

ИванИван

Пол:

Стаж: 4 года 11 месяцев

Сообщений: 4

Репутация: 0 [+] [-]

Пост 16-Ноя-2013 21:58 (спустя 51 секунда)

[Цитировать] 

всё норм спасибо за труды
[Торрент-статистика]
[Профиль]  [ЛС] 
Показать сообщения:    
Ответить на тему

Текущее время: Сегодня 06:21

Часовой пояс: GMT + 4



Вы не можете начинать темы
Вы не можете отвечать на сообщения
Вы не можете редактировать свои сообщения
Вы не можете удалять свои сообщения
Вы не можете голосовать в опросах
Вы не можете прикреплять файлы к сообщениям
Вы не можете скачивать файлы