Светофор (5 сезон: 1-20 серии из 20) (Роман Фокин) [2013, Ситком, Комедия, IPTVRip]

Ответить на тему
 
Автор
Сообщение

awk05 ®

Пол:

Стаж: 4 года 5 месяцев

Сообщений: 1352

Репутация: 275 [+] [-]

Откуда: Западная Украина Ривне

Пост 14-Ноя-2013 18:26

[Цитировать] 

--Светофор--Год выпуска: 2132
Страна: Россия / "YBW Group" по заказу СТС
Жанр: Ситком, Комедия
Субтитры: Украинские
Продолжительность: 24 мин--Режиссер: Роман Фокин--В ролях: Ольга Медынич, Джемал Тетруашвили, Дмитрий Миллер, Ирина Низина, Сергей Лобынцев, Александр Никольский (II), Евгения Каверау--Описание: Когда тебе за тридцать, ты вдруг замечаешь, что твоя жизнь похожа на сигналы светофора. Если ты холостяк, для тебя всегда горит зеленый свет, все вокруг в движении, и ты свободно едешь. Куда хочешь. И с кем хочешь. Если ты встречаешься с девушкой, тебе уже мигает желтый свет. С одной стороны, ты еще в движении, а с другой, уже готовишься остановиться. А если ты женат — ты встал на красном. Все изменилось: ты уже не можешь думать только о себе.
Их трое. Им немного за тридцать. Они лучшие друзья, которые всегда придут друг другу на помощь. Вернее, почти всегда. Ведь у каждого из них в жизни есть еще нечто, чему нужно уделять очень много внимания. Это – любовь. Со времен, когда у каждого героя был свой цвет — красный, желтый и зеленый, — многое поменялось. Эдик сбился со счета, коллекционируя девушек на одну ночь. У Паши и Олеси вся жизнь посвящена появлению будущего ребенка. Сева забыл, когда у него в последний раз был секс и был ли он вообще… Но главное осталось прежним: героям все так же хочется побыть хоть чуть-чуть вдали от женщин и все так же редко это у них получается.--Тип релиза: IPTVRip
Контейнер: AVI
Видео кодек: XviD
Аудио кодек: MP3 (MPEG1 Layer 3)
Видео: 704 x 400 (16:9) 25.000 fps 1 641 Kbps
Аудио: MP3, 2 ch, 48.0 KHz 192 Кбит/с--Сэмпл / ImDB / Кинопоиск--

МI

Расположение: E:\Сериалы новые\Svetofor.(5.sezon).2013.XviD.SATRip.by.simka-BigFANgroup\Svetofor.(5.sezon.01.seriya).2013.XviD.SATRip.simkanetua.avi
Имя файла: Svetofor.(5.sezon.01.seriya).2013.XviD.SATRip.simkanetua.avi
Формат файла: .avi (AVI)
Размер файла: 285.64 MB
Длительность: 24mn 20s
Навигация по главам: Нет
Битрейт (все потоки): 1 641 Kbps
Создан при помощи: VirtualDubMod 1.5.10.3 | www.virtualdub-fr.org || (build 2550/release)
Использовалась библиотека: VirtualDubMod build 2550/release
Обложка: Отсутствует
Название: Svetofor.(5.sezon.01.seriya).2013.XviD.SATRip.simkanetua
Тип потока: Видео
Длительность: 00:24:20
Кодек: MPEG-4 Visual
Кодек/профиль: Advanced Simple@L5
Кодек/ID: XVID
Размеры изображения: 704 x 400 (16:9)
Частота кадров: 25.000 fps
Размер потока: 251 MiB (88%)
Битрейт: 1 439 Kbps
Метод сжатия: Lossy
Библиотека кодирования: XviD 1.2.1 (UTC 2008-12-04)
Цветовое пространство: YUV
Тип развёртки: Progressive
Глубина: 8 bits
Тип потока: Звук #1
Длительность: 00:24:20.472
Кодек: MPEG Audio
Кодек/профиль: Layer 3
Кодек/ID: 55
Частота дискретизации: 48.0 KHz
Каналов: 2 channels
Битрейт: 192 Kbps
Битрейт/тип: Constant
Размер потока: 33.4 MiB (12%)
Метод сжатия: Lossy
Программа: LAME3.98r
Настройки программы: -m j -V 4 -q 2 -lowpass 18.6 -b 192

Скриншоты

«СЕЗОН 1-4» «СЕЗОН 5» «СЕЗОН 6»

_________________
[Торрент-статистика]
[Профиль]  [ЛС] 
Показать сообщения:    
Ответить на тему

Текущее время: Сегодня 04:15

Часовой пояс: GMT + 4



Вы не можете начинать темы
Вы не можете отвечать на сообщения
Вы не можете редактировать свои сообщения
Вы не можете удалять свои сообщения
Вы не можете голосовать в опросах
Вы не можете прикреплять файлы к сообщениям
Вы не можете скачивать файлы