Светофор / Сезон: 1-4, Серии: 1-80 из 80 (Роман Фокин) [2011-2012, Комедия, IPTVRip]

Ответить на тему
 
Автор
Сообщение

awk05 ®

Пол:

Стаж: 4 года 5 месяцев

Сообщений: 1352

Репутация: 275 [+] [-]

Откуда: Западная Украина Ривне

Пост 14-Ноя-2013 17:57

[Цитировать] 

--Светофор-- Год выпуска: 2011-2012
Производство: Россия
Жанр: Комедия
Продолжительность: 80x~ 00:24:00
Субтитры: Нет--Режиссёр: Роман Фокин--В ролях: Дмитрий Миллер, Александр Макогон, Джемал Тетруашвили, Ирина Низина, Ольга Медынич, Евгения Каверау, Екатерина Архарова, Александр Никольский, Сергей Лобынцев, Татьяна Клюкина--Описание: «Светофор» — это первая правдивая комедия о мужчинах, в которой (как и в реальной жизни) всегда побеждают девушки. Можно идти на какие угодно уловки, выдумывать самые невероятные истории, стараться найти время для себя любимых и прожить, наконец, хотя бы минуту без женщин. И все это только ради того, чтобы в следующую секунду понять — это была самая бесполезная минута в жизни. Когда тебе за тридцать, ты вдруг замечаешь, что твоя жизнь похожа на сигналы светофора. Если ты холостяк, для тебя всегда горит зеленый свет, все вокруг в движении, и ты свободно едешь. Куда хочешь. И с кем хочешь. Если ты встречаешься с девушкой, тебе уже мигает желтый свет. С одной стороны, ты еще в движении, а с другой, уже готовишься остановиться. А если ты женат ты встал на красном. Все изменилось: ты уже не можешь думать только о себе.
Их трое. Им немного за тридцать. Они лучшие друзья, которые всегда придут друг другу на помощь. Вернее, почти всегда. Ведь у каждого из них в жизни есть еще нечто, чему нужно уделять очень много внимания. Это – любовь. Их жизнь словно раскрашена огнями светофора. Эдик вряд ли сможет вспомнить, когда в последний раз его романы с девушками длились дольше двух свиданий. Для него нет преград и препятствий и сам он свободен для любых отношений. У Паши все немного сложнее – постоянная девушка, свадьба в ближайших планах и предупреждающий «желтый» в голове, когда еще непонятно, в какую сторону светофор переключится. А в жизни Севы уже давно горит «красный»: жена, дочка, максимум ответственности, минимум развлечений. Хотя развлечений, если честно, все еще очень хочется.--Качество: IPTVRip
Формат: AVI
Видео кодек: XviD
Аудио кодек: MP3
Видео: MPEG-4 Visual, 720x400 (1.80:1), 25 fps, XviD build 64, ~1545 kbps avg, 8 bits, 0.21 bit/pixel
Аудио: MP3, MPEG Layer 3, 48 kHz, 2 ch, ~128.00 kbps avg-Сэмпл / ImDB / Кинопоиск-

MI:

General
Complete name : E:\Фильмы\Светофор (2011-2012)\Сезон-3\Svetofor.s03.e09.2011.XviD.IPTVRip.by.Shel.avi
Format : AVI
Format/Info : Audio Video Interleave
File size : 286 MiB
Duration : 24mn 31s
Overall bit rate : 1 632 Kbps
Writing library : VirtualDub build 32842/release
Video #0
ID : 0
Format : MPEG-4 Visual
Format profile : Advanced Simple@L5
Format settings, BVOP : 2
Format settings, QPel : No
Format settings, GMC : No warppoints
Format settings, Matrix : Default (MPEG)
Codec ID : XVID
Codec ID/Hint : XviD
Duration : 24mn 31s
Bit rate : 1 494 Kbps
Width : 720 pixels
Height : 400 pixels
Display aspect ratio : 16:9
Frame rate : 25.000 fps
Color space : YUV
Chroma subsampling : 4:2:0
Bit depth : 8 bits
Scan type : Progressive
Compression mode : Lossy
Bits/(Pixel*Frame) : 0.208
Stream size : 262 MiB (92%)
Writing library : XviD 64
Audio #1
ID : 1
Format : MPEG Audio
Format version : Version 1
Format profile : Layer 3
Mode : Joint stereo
Mode extension : MS Stereo
Codec ID : 55
Codec ID/Hint : MP3
Duration : 24mn 31s
Bit rate mode : Constant
Bit rate : 128 Kbps
Channel(s) : 2 channels
Sampling rate : 48.0 KHz
Compression mode : Lossy
Stream size : 22.4 MiB (8%)
Alignment : Split accross interleaves
Interleave, duration : 40 ms (1.00 video frame)
Interleave, preload duration : 500 ms

Скриншоты:

«СЕЗОН 1-4» «СЕЗОН 5» «СЕЗОН 6»

_________________
[Торрент-статистика]
[Профиль]  [ЛС] 
Показать сообщения:    
Ответить на тему

Текущее время: Сегодня 20:33

Часовой пояс: GMT + 4



Вы не можете начинать темы
Вы не можете отвечать на сообщения
Вы не можете редактировать свои сообщения
Вы не можете удалять свои сообщения
Вы не можете голосовать в опросах
Вы не можете прикреплять файлы к сообщениям
Вы не можете скачивать файлы