Городские шпионы / Серии: 1-12 из 12 (Дмитрий Черкасов) [2013, детектив, DVB]

Ответить на тему
 
Автор
Сообщение

awk05 ®

Пол:

Стаж: 4 года 5 месяцев

Сообщений: 1352

Репутация: 275 [+] [-]

Откуда: Западная Украина Ривне

Пост 14-Ноя-2013 17:19

[Цитировать] 

--Городские шпионы (шпионы)-- Год выпуска: 2013
Производство: Россия, Кинокомпания «ЩУКА», Первый канал
Жанр: детектив
Продолжительность: ~00:52:00
Субтитры: Нет--Режиссёр: Дмитрий Черкасов--В ролях: Оксана Фандера, Анатолий Белый, Александр Робак, Алексей Литвиненко (II), Виталий Хаев, Анна Лутцева, Фёдор Лавров, Дмитрий Фрид, Ольга Дыховичная, Ольга Сумская, Константин Котляров, Игорь Денисов, Максим Меркулов, Борис Тенин (II), Роман Морозов, Артём Григорьев (II), Евгений Кушпель, Андрюс Паулавичюс, Полина Стефанович, Артём Григорьев (II), Олег Вебер, Инна Коляда--Описание: Они - невидимки, которые ходят среди нас. Они многолики, хитры и высокопрофессиональны. Единственное, чего у них нет - это права совершить ошибку, потому что каждый промах чреват непоправимыми последствиями.
Мы знакомимся с членами группы, возглавляет которую Андрей Шпагин. Они получили важное задание взяться за расследование деятельности могущественного криминального клана. Члены этой опаснейшей группировки крышуют незаконную добычу и продажу алмазов. Этот бизнес, приносящий колоссальные доходы своим владельцам, прикрыт законной деятельностью одной из компаний.
Нашим героям предстоит “выйти” на главных мафиози, контролирующих этот вид бизнеса и получить неоспоримые доказательства того, что идет грубейшее нарушение закона. Жизни “городских шпионов” вновь будут подвергаться опасности.--Реклама отсутствует!--Качество: DVB
Формат: MPEG
Видео кодек: MPEG2
Аудио кодек: MPEG1
Видео: MPEG2 Video 720x576 (4:3) 25.00fps ~4190 Kbps (0.404 bit/pixel)
Аудио: MPEG Audio 48000Hz 2 channels 192 Кбит/сек-Сэмпл / Кинопоиск-

MI

Видео
Общее
Полное имя : Городские шпионы.(Serija.01).2013.DVB.by.simka_RG_Сериалы.mpg
Формат : MPEG-PS
Размер файла : 1,64 Гбайт
Продолжительность : 52 м.
Режим общего битрейта : Переменный
Общий поток : 4471 Кбит/сек
Библиотека кодирования : (c) 1998-2010 Womble Multimedia, Inc. / MPEG Video Wizard DVD 5.0.0.114 (01/2010) / Nov 13 2010
Видео
Идентификатор : 224 (0xE0)
Формат : MPEG Video
Версия формата : Version 2
Профиль формата : Main@Main
Параметр BVOP формата : Да
Параметр матрицы формата : Выборочная
Параметр GOP формата : Variable
Продолжительность : 52 м.
Вид битрейта : Переменный
Битрейт : 4190 Кбит/сек
Максимальный битрейт : 15,0 Мбит/сек
Ширина : 720 пикселей
Высота : 576 пикселей
Соотношение сторон : 4:3
Частота кадров : 25,000 кадров/сек
Стандарт вещания : PAL
Цветовое пространство : YUV
Субдискретизация насыщенности : 4:2:0
Битовая глубина : 8 бит
Тип развёртки : Чересстрочная
Порядок развёртки : Верхнее поле первое
Метод сжатия : С потерями
Бит/(Пиксели*Кадры) : 0.404
TimeCode_FirstFrame : 00:00:00:00
TimeCode_Source : Group of pictures header
Размер потока : 1,54 Гбайт (94%)
Библиотека кодирования : (c) 1998-2010 Womble Multimedia, Inc. / MPEG Video Wizard DVD 5.0.0.114 (01/2010) / Nov 13 2010
Аудио
Идентификатор : 192 (0xC0)
Формат : MPEG Audio
Версия формата : Version 1
Профиль формата : Layer 2
Продолжительность : 52 м.
Вид битрейта : Постоянный
Битрейт : 192 Кбит/сек
Каналы : 2 канала
Частота : 48,0 КГц
Метод сжатия : С потерями
Размер потока : 72,2 Мбайт (4%)
Меню

Скриншоты


_________________
[Торрент-статистика]
[Профиль]  [ЛС] 
Показать сообщения:    
Ответить на тему

Текущее время: Сегодня 19:43

Часовой пояс: GMT + 4



Вы не можете начинать темы
Вы не можете отвечать на сообщения
Вы не можете редактировать свои сообщения
Вы не можете удалять свои сообщения
Вы не можете голосовать в опросах
Вы не можете прикреплять файлы к сообщениям
Вы не можете скачивать файлы