Метод Лавровой / 1-40 серии из 40 (Владислав Николаев, Андрей Ушатинский) [2011 г., иронический детектив, IPTVRip]

Ответить на тему
 
Автор
Сообщение

awk05 ®

Пол:

Стаж: 4 года 5 месяцев

Сообщений: 1352

Репутация: 275 [+] [-]

Откуда: Западная Украина Ривне

Пост 07-Ноя-2013 14:10

[Цитировать] 

--Метод Лавровой -- Год выпуска: 2011
Производство: Россия, Леан-М
Жанр: иронический детектив
Продолжительность: 40 серий по ~ 45-47 минут
Субтитры: нет--Режиссёры: Владислав Николаев, Андрей Ушатинский--В ролях: Юрий Батурин, Дмитрий Блохин, Светлана Ходченкова, Артем Григорьев, Сергей Беляев, Павел Прилучный, Елена Валюшкина, Максим Виноградов, Наталья Тищенко, Борис Невзоров, Елена Коллегова
Описание: Чтобы быть великолепным сыщиком, не нужно уметь играть на скрипке. Не требуется носить идеальные усы. Даже не обязательно курить сигару или употреблять викодин. Сегодня достаточно знать высшую математику, быть красивой блондинкой и уметь превосходно распутывать сложнейшие преступления. И еще необходимо иметь свой метод.
Катя Лаврова — красивая дочка высокопоставленного начальника МВД, отличница с красным дипломом и лучший опер Управления. Она обладает мужской логикой, острым умом и отточенным чувством юмора. Еще недавно ее ждала прекрасная карьера, но неожиданно она ушла из отдела. Причину никому не объяснила. С тех пор работает внештатным консультантом криминальной полиции и помогает в раскрытии самых загадочных преступлений.
Отыскать царские драгоценности раньше привидения, найти маньяка среди первокурсников, предотвратить сделку арт-контрабандистов на десять миллионов долларов, — с помощью обычных методов такие преступления раскрыть невозможно. Лаврова использует психологию, нелинейную логику и группу из 7 студентов Университета МВД, которые помогают ей.--Качество: IPTVRip
Формат: AVI
Видео кодек: XviD
Аудио кодек: MP3
Видео: 720x400 (1.80:1), 25 fps, XviD MPEG-4 ~1365 kbps avg, 0.19 bit/pixel
Аудио: 48 kHz, MPEG Layer 3, 2 ch, ~128.00 kbps avg--

Главные герои

Светлана Ходченкова — Екатерина Андреевна Лаврова, 27 лет, куратор группы курсантов Академии МВД, в прошлом окончила Академию МВД с красным дипломом и работала в опергруппе. Влюблена в Игоря Леоновского. Очень любит и ценит своих курсантов.
Дмитрий Блохин — Михаил Львович Чиглинцев, 35 лет, майор полиции. Не может разобраться в своих чувствах. Ему нравится Екатерина Лаврова и Марина Никишина.
Павел Прилучный — Родион Александрович Долгов, 19-20 лет, курсант Академии МВД
Ярослав Жалнин — Виталий Сергеевич Миско, 20 лет, курсант Академии МВД, жених, во 2 сезоне муж Варвары Захаровой
Максим Виноградов — Денис Леонидович Саблин, 20 лет, курсант Академии МВД
Вячеслав Шихалеев — Фёдор Петрович Черных, 25 лет, бывший курсант Академии МВД, влюблен в Екатерину Лаврову
Григорий Иванец — Иван Григорьевич Шишкарёв, 25 лет, курсант Академии МВД
Дарья Иванова — Варвара Семёновна Захарова, 21 год, курсантка Академии МВД, невеста, во 2 сезоне жена Виталия Миско
Ольга Дибцева — Марина Михайловна Никишина, 20 лет, курсантка Академии МВД, влюблена в Михаила Чиглинцева
Юрий Батурин — Игорь Георгиевич Леоновский, 37 лет, известный адвокат, приглашённый лектор в Академии МВД.В первых сериях влюбляется в Екатерину Лаврову.
Алёна Ивченко — Лидия Алексеевна Кудилина, 40 лет, подполковник полиции, преподаватель Академии МВД, заместитель начальника Академии по учебной работе, главный недоброжелатель Екатерины Лавровой
Борис Невзоров — Олег Иванович Переверзев, 60 лет, генерал-майор, начальник Академии МВД, друг отца Екатерины Лавровой и всегда помогает ей во всем.
Артём Григорьев — Артем Павлович Захоронок, 26 лет, лейтенант полиции, помощник Михаила Чиглинцева
Дарья Лузина — Александра Анатольевна Вострякова, 28 лет, журналистка, школьная подруга Екатерины Лавровой, её конфидент
Татьяна Лютаева — Антонина Игоревна Лаврова, мать Екатерины Лавровой, вдова генерала
Александр Стефанцов — Вадим Станиславович Усов, 30 лет, актёр, бывший муж Екатерины Лавровой
Александр Дзюба — Александр Зотов, «сводный брат» Екатерины Лавровой, находится в розыске

MI

Общее
Полное имя : Metod.Lavrovoy.(01).2011.XviD.IPTVRip.avi
Формат : AVI
Формат/Информация : Audio Video Interleave
Размер файла : 483 Мбайт
Продолжительность : 44 м.
Общий поток : 1503 Кбит/сек
Программа кодирования : VirtualDubMod 1.5.10.2 (build 2540/release)
Библиотека кодирования : VirtualDub build 32706/release
Видео
Идентификатор : 0
Формат : MPEG-4 Visual
Профиль формата : Advanced Simple@L5
Параметр BVOP формата : 2
Параметр QPel формата : Нет
Параметр GMC формата : Без точки перехода
Параметр матрицы формата : Default (H.263)
Режим смешивания : Сжатый битовый поток
Идентификатор кодека : XVID
Идентификатор кодека/Подсказка : XviD
Продолжительность : 44 м.
Битрейт : 1365 Кбит/сек
Ширина : 720 пикс.
Высота : 400 пикс.
Соотношение сторон : 16:9
Частота кадров : 25,000 кадр/сек
Цветовое пространство : YUV
Подвыборка цветности : 4:2:0
Битовая глубина : 8 бит
Тип развёртки : Прогрессивная
Метод сжатия : С потерями
Бит/(Пиксели*Кадры) : 0.190
Размер потока : 438 Мбайт (91%)
Библиотека кодирования : XviD 1.2.1 (UTC 2008-12-04)
Аудио
Идентификатор : 1
Формат : MPEG Audio
Версия формата : Version 1
Профиль формата : Layer 3
Режим : Joint stereo
Расширение режима : MS Stereo
Идентификатор кодека : 55
Идентификатор кодека/Подсказка : MP3
Продолжительность : 44 м.
Вид битрейта : Постоянный
Битрейт : 128 Кбит/сек
Канал(ы) : 2 канала(ов)
Частота : 48,0 КГц
Метод сжатия : С потерями
Размер потока : 41,1 Мбайт (9%)
Выравнивание : Соединение по промежуткам
Продолжительность промежутка : 40 мс. (1,00 видеокадр)
Время предзагрузки промежутка : 504 ms
«СЕЗОН 1» «СЕЗОН 2»

_________________
[Торрент-статистика]
[Профиль]  [ЛС] 
Показать сообщения:    
Ответить на тему

Текущее время: Сегодня 08:56

Часовой пояс: GMT + 4



Вы не можете начинать темы
Вы не можете отвечать на сообщения
Вы не можете редактировать свои сообщения
Вы не можете удалять свои сообщения
Вы не можете голосовать в опросах
Вы не можете прикреплять файлы к сообщениям
Вы не можете скачивать файлы