Мотыльки, серии 1-4 (4) (Виталий Воробьев) [2013 г., драма, HDRip]

Ответить на тему
 
Автор
Сообщение

alien.09 ®

Пол:

Стаж: 3 года 8 месяцев

Сообщений: 749

Репутация: 553 [+] [-]

Пост 29-Сен-2013 13:04

[Цитировать] 

--Мотыльки, серии 1-4 (4)--Год выпуска: 2013
Страна: Украина
Жанр: драма
Продолжительность: ~00:50:00 х 4-Режиссер: Виталий Воробьев-В ролях: Юрий Борисов, Мария Поезжаева, Евгения Лоза, Андрей Казаков, Юрий Назаров, Юлия Рутберг, Артем Ткаченко, Максим Заусалин, Тимур Боканча, Олег Примогенов-Описание: История любви выпускницы старших классов Али и солдата срочной службы Паши разворачивается на фоне одной из самых масштабных техногенных катастроф XX века — Чернобыльской аварии. Им суждено было встретиться в конце апреля 1986 года в городе Припять. Словно мотыльки, стремящиеся к огню, они летели навстречу своим чувствам, не замечая ничего вокруг...-- --Тип релиза: HDRip
Контейнер: AVI
Видео кодек: XviD
Аудио кодек: MP3 (MPEG1 Layer 3)
Видео: MPEG-4 Visual at 2083 Кбит/сек, 720 x 400 (1.778) at 25.000 fps
Аудио: MPEG Audio at 128 Кбит/сек, 2 канала, 48,0 КГц

MI Report

Общее
Полное имя : C:\Users\Gary\Videos\Бродимком\Мотыльки 1-4 720х\Мотыльки 01.avi
Формат : AVI
Формат/Информация : Audio Video Interleave
Размер файла : 790 Мбайт
Продолжительность : 49 м.
Общий поток : 2224 Кбит/сек
Программа кодирования : XviD4PSP 6.0 / 54.29.105
Видео
Идентификатор : 0
Формат : MPEG-4 Visual
Профиль формата : Advanced Simple@L5
Параметр BVOP формата : 1
Параметр QPel формата : Нет
Параметр GMC формата : Без точки перехода
Параметр матрицы формата : Default (H.263)
Идентификатор кодека : XVID
Идентификатор кодека/Подсказка : XviD
Продолжительность : 49 м.
Битрейт : 2083 Кбит/сек
Ширина : 720 пикселей
Высота : 400 пикселей
Соотношение сторон : 16:9
Частота кадров : 25,000 кадров/сек
Цветовое пространство : YUV
Субдискретизация насыщенности : 4:2:0
Битовая глубина : 8 бит
Тип развёртки : Прогрессивная
Метод сжатия : С потерями
Бит/(Пиксели*Кадры) : 0.289
Размер потока : 740 Мбайт (94%)
Библиотека кодирования : XviD 64
Аудио
Идентификатор : 1
Формат : MPEG Audio
Версия формата : Version 1
Профиль формата : Layer 3
Режим : Joint stereo
Расширение режима : MS Stereo
Идентификатор кодека : 55
Идентификатор кодека/Подсказка : MP3
Продолжительность : 49 м.
Вид битрейта : Постоянный
Битрейт : 128 Кбит/сек
Каналы : 2 канала
Частота : 48,0 КГц
Метод сжатия : С потерями
Размер потока : 45,5 Мбайт (6%)
Выравнивание : Соединение по промежуткам
Продолжительность промежутка : 24 мс. (0,60 видеокадр)

Скриншоты


_________________
Правообладатели, убейтесь об эту надпись.
[Торрент-статистика]
[Профиль]  [ЛС] 

ttan

Пол:

Стаж: 4 года 7 месяцев

Сообщений: 606

Репутация: 362 [+] [-]

Откуда: где - то на Севере ...

Пост 29-Сен-2013 14:00 (спустя 55 минут)

[Цитировать] 

alien.09 !
спасибо за адекватное кино ...
хорошего дня ... bv

_________________
[Торрент-статистика]
[Профиль]  [ЛС] 

alien.09 ®

Пол:

Стаж: 3 года 8 месяцев

Сообщений: 749

Репутация: 553 [+] [-]

Пост 29-Сен-2013 20:20 (спустя 6 часов)

[Цитировать] 

ttan,
пасиба ab
приятного просмотра.

_________________
Правообладатели, убейтесь об эту надпись.
[Торрент-статистика]
[Профиль]  [ЛС] 

Сфинксик

Пол:

Стаж: 3 года 7 месяцев

Сообщений: 1661

Репутация: 1032 [+] [-]

Откуда: г.Раменское

Пост 29-Сен-2013 21:47 (спустя 1 час 27 минут)

[Цитировать] 

Про этот Чернобыль уже вдоль и поперек...... и не надоело им......
Игорь тебе за труды +,+.

_________________
ЕСЛИ НЕТ СИДОВ НА РАЗДАЧЕ СТУЧИТЕ В ЛИЧКУ В ТЕЧЕНИИ СУТОК ВОССТАНОВЛЮ!!!!
[Торрент-статистика]
[Профиль]  [ЛС] 

Zerge

Стаж: 4 года 1 месяц

Сообщений: 9

Репутация: 1 [+] [-]

Пост 01-Окт-2013 19:39 (спустя 1 день 21 час)

[Цитировать] 

35642Про этот Чернобыль уже вдоль и поперек... и не надоело им...
Разве есть куча фильмов с рейтингом 8+ про Чернобыль?
Или Саша Бло mode?
Фильм на редкость хорош.
[Торрент-статистика]
[Профиль]  [ЛС] 
Показать сообщения:    
Ответить на тему

Текущее время: Сегодня 18:18

Часовой пояс: GMT + 4



Вы не можете начинать темы
Вы не можете отвечать на сообщения
Вы не можете редактировать свои сообщения
Вы не можете удалять свои сообщения
Вы не можете голосовать в опросах
Вы не можете прикреплять файлы к сообщениям
Вы не можете скачивать файлы