Агент / Серии: 1-16 из 16 (Георгий Гаврилов, Дмитрий Кузьмин) [2013, Детектив, приключения, SATRip]

Ответить на тему
 
Автор
Сообщение

awk05 ®

Пол:

Стаж: 4 года 5 месяцев

Сообщений: 1352

Репутация: 275 [+] [-]

Откуда: Западная Украина Ривне

Пост 02-Июн-2013 00:56

[Цитировать] 

-Агент- Год выпуска: 2013
Производство: Россия, «АРТ-БАЗАР»
Жанр: Детектив, приключения
Продолжительность: ~ 00:43:00
Субтитры: нет-Режиссёр: Георгий Гаврилов, Дмитрий Кузьмин-В ролях: Юрий Беляев, Алексей Серебряков, Агния Дитковските, Ада Роговцева, Татьяна Лютаева, Ольга Сумская, Илья Шакунов-Описание: Секретному агенту спецслужб Андрею Козыреву (Алексей Серебряков) по прозвищу Американец, несправедливо осужденному за убийство, однажды выпадает шанс изменить свою жизнь. Он совершает дерзкий побег из колонии, чтобы разыскать своего врага, доказать свою невиновность и спасти мир от нового смертельного вируса, грозящего гибелью миллионам людей. Несколько лет назад Андрей Козырев и его начальник генерал Данилов (Юрий Беляев) разрабатывали дело о новом мощном управляемом вирусе. В ходе расследования они выяснили, что производством вируса занимался их бывший коллега – некто Самсонов (Илья Шакунов). Но остановить безжалостного экспериментатора офицеры не успели. Самсонов совершил покушение, в результате которого погибли жена и дочь Козырева. Вскоре при взрыве погиб и сам Самсонов, а Козырев, оказавшийся главным подозреваемым, был осужден за его убийство на 15 лет...-Сэмпл|КиноПоиск-
Качество: SATRip
Формат: AVI
Видео кодек: XviD
Аудио кодек: МР3
Видео: 720x400 (1.80:1), 25000 fps, XviD build 50 ~1662 kbps avg, 0.23 bit/pixel
Аудио: 48 kHz, MPEG Layer 3, 2 ch, ~192.00 kbps avg

MI

Расположение: E:\Сериалы новые\Agent.2013.SATRip.Files-x\Agent.02.seriya.2013.SATRip.Files-x.avi
Имя файла: Agent.02.seriya.2013.SATRip.Files-x.avi
Формат файла: .avi (AVI)
Размер файла: 550.05 MB
Длительность: 42mn 10s
Навигация по главам: Нет
Bitrate (все потоки): 1 824 Kbps
...при помощи: VirtualDubMod 1.5.10.3 | www.virtualdub-fr.org || (build 2550/release)
...с использованием: VirtualDubMod build 2550/release
Название: Agent.02.seriya.2013.SATRip.Files-x
Тип потока: Видео
Длительность: 00:42:10
Кодек: MPEG-4 Visual
Кодек/Профиль: Advanced Simple@L5
Кодек/ID: XVID
Размеры изображения: 720 x 400 (16:9)
Частота кадров: 25.000 fps
Размер потока: 489 MiB (89%)
Битрейт: 1 622 Kbps
Цветовое пространство: YUV
Тип развёртки: Progressive
Bits/(Pixel*Frame): 0.225
Глубина пикселя: 8 bits
Библиотека кодирования: XviD 1.2.1 (UTC 2008-12-04)
Тип потока: Звук #1
Длительность: 00:42:10.320
Кодек: MPEG Audio
Кодек/ID: 55
Частота дискретизации: 48.0 KHz
Каналы: 2 channels
Битрейт: 192 Kbps
Тип битрейта: Constant
Размер потока: 57.9 MiB (11%)

Скриншоты


_________________
[Торрент-статистика]
[Профиль]  [ЛС] 
Показать сообщения:    
Ответить на тему

Текущее время: Сегодня 10:03

Часовой пояс: GMT + 4



Вы не можете начинать темы
Вы не можете отвечать на сообщения
Вы не можете редактировать свои сообщения
Вы не можете удалять свои сообщения
Вы не можете голосовать в опросах
Вы не можете прикреплять файлы к сообщениям
Вы не можете скачивать файлы