Топтуны / Серии: 1-24 из 24 (Сергей Векслер, Сергей Артимович) [2013, Детектив, криминал, SATRip]

Ответить на тему
 
Автор
Сообщение

awk05 ®

Пол:

Стаж: 4 года 5 месяцев

Сообщений: 1352

Репутация: 275 [+] [-]

Откуда: Западная Украина Ривне

Пост 28-Май-2013 20:34

[Цитировать] 

-Топтуны- Год выпуска: 2013
Производство: Телекомпания "STAR Media" по заказу НТВ
Жанр: Детектив, криминал
Продолжительность: ~0:45:00 серия
Субтитры: отсутствуют-Режиссёр: Сергей Векслер, Сергей Артимович-В ролях: Денис Никифоров, Анна Носатова, Андрей Негривода, Дарья Шиханова, Ксения Иванова, Владимир Яковлев, Сослан Фидаров, Елена Мольченко (Фатюшина), Сергей Векслер, Евгений Леонов-Гладышев, Александра Афанасьева-Шевчук, Анна Банщикова, Егор Баринов, Луиза-Габриэла Бровина, Александр Рапопорт, Татьяна Косач-Брындина, Алексей Секирин, Бесо Гатаев, Евгений Ермаков, Алена Созинова, Сергей Терещенко, Николай Дроздовский, Сергей Комаров, Юрий Яковлев-Суханов, Мария Горбань, Руслан Ягудин, Александр Шпагин, Дарья Авратинская, Сергей Белов, Роман Синицын, Алексей Артемов, Денис Сердюков, Николай Алипа, Сергей Апрельский, Тарас Кияшко, Константин Новиков, Виктор Фалалеев, Константин Тополага, Василий Мичков, Джамболат Сланов, Максим Костромыкин, Надежда Белова-Описание:«Топтуны» — так называют Оперативно-поисковое управление, одну из самых засекреченных служб МВД. Майор милиции Сергей Ковалев, его помощник Макс Самедов, оперуполномоченные Аглая Максимова и Екатерина Чепикова каждый день имеют дело с особо опасными преступниками.
Маскируясь под обычных людей и часто без оружия, они обязаны найти и обезвредить подозреваемых в уголовных преступлениях. Мгновенно перевоплощаясь в любой образ, которого требует ситуация, эта команда выполняет самые различные задачи — от поиска вооруженного дезертира, до ареста главбуха финансовой пирамиды, находящегося в бегах с круглой суммой уже не один год.- -Сэмпл | КиноПоиск-
Качество: SATRip
Формат: AVI
Видео кодек: XviD
Аудио кодек: MP3
Видео: 720x400 (16:9), 25 000 fps, XviD build 50 ~1568 kbps avg, 0.218 bit/pixel
Аудио: 48 kHz, MPEG Layer 3, 2 ch, ~128.00 kbps avg
Реклама отсутствует

MI

Расположение: E:\СЕРИАЛЫ\Toptuny.2013.SATRip\Toptuny.2013.SATRip_01.seriya.avi
Имя файла: Toptuny.2013.SATRip_01.seriya.avi
Формат файла: .avi (AVI)
Размер файла: 549.86 MB
Длительность: 45mn 4s
Навигация по главам: Нет
Bitrate (все потоки): 1 705 Kbps
...при помощи: VirtualDubMod 1.5.10.2 (build 2540/release)
...с использованием: VirtualDubMod build 2540/release
Название: Toptuny.2013.SATRip_01.seriya
Тип потока: Видео
Длительность: 00:45:04
Кодек: MPEG-4 Visual
Кодек/Профиль: Advanced Simple@L5
Кодек/ID: XVID
Размеры изображения: 720 x 400 (16:9)
Частота кадров: 25.000 fps
Размер потока: 505 MiB (92%)
Битрейт: 1 568 Kbps
Цветовое пространство: YUV
Тип развёртки: Progressive
Bits/(Pixel*Frame): 0.218
Глубина пикселя: 8 bits
Библиотека кодирования: XviD 1.2.1 (UTC 2008-12-04)
Тип потока: Звук #1
Длительность: 00:45:04.608
Кодек: MPEG Audio
Кодек/ID: 55
Частота дискретизации: 48.0 KHz
Каналы: 2 channels
Битрейт: 128 Kbps
Тип битрейта: Constant
Размер потока: 41.3 MiB (8%)

Скриншоты


_________________
[Торрент-статистика]
[Профиль]  [ЛС] 
Показать сообщения:    
Ответить на тему

Текущее время: Сегодня 10:56

Часовой пояс: GMT + 4



Вы не можете начинать темы
Вы не можете отвечать на сообщения
Вы не можете редактировать свои сообщения
Вы не можете удалять свои сообщения
Вы не можете голосовать в опросах
Вы не можете прикреплять файлы к сообщениям
Вы не можете скачивать файлы