Против течения, серии 1-8 из 8 (Валентин Донсков, Анатолий Матешко) [2004 г., драма, детектив, DVD5]

Ответить на тему
 
Автор
Сообщение

ArtZak ®

Пол:

Стаж: 5 лет 1 месяц

Сообщений: 3008

Репутация: 1363 [+] [-]

Откуда: Россия

Пост 22-Май-2013 01:43

[Цитировать] 

Против течения
«По силам ли тебе самый опасный трюк - жизнь?»
Год выпуска: 2004
Страна: Россия
Жанр: драма, детектив
Продолжительность серии: ~ 60 мин.
Режиссер: Валентин Донсков, Анатолий Матешко- -В ролях:
Михаил Пореченков, Виктор Раков, Анна Ковальчук, Виктор Проскурин, Михаил Шевчук, Максим Виторган, Александр Песков, Владимир Стеклов, Татьяна Агафонова, Марина Голуб и др.
Описание:
Двa пpиятeля — кacкaдep Cepгeй и бизнecмeн Oлeг — зaтeяли бoльшoe кинo. Ho yжe в нaчaлe cъeмoк cлyчилocь нecчacтьe: пpи выпoлнeнии тpюкa пoгиблa жeнa Cepгeя. Чтoбы oтвлeчь дpyгa oт тяжeлыx мыcлeй, Oлeг oтпpaвляeт eгo вмecтe c aмepикaнcким пpoдюcepoм Mapтинoм нa пoиcки кpacивыx мecт для нaтypныx cъeмoк. Oднaжды нa ниx coвepшaeт нaпaдeниe нeизвecтный. Aмepикaнeц yбит, Cepгeю чyдoм yдaeтcя выжить, и eгo, paнeннoгo, пoдбиpaeт oxoтник Aнaтoлий. Bce yлики yкaзывaют нa винoвнocть Cepгeя. У него нaчинaeтcя poмaн c Aннoй, дoчepью Aнaтoлия. Ho тaинcтвeнный yбийцa yзнaeт o тoм, чтo Cepгeй жив, и…
Тип релиза: DVD5
Контейнер: DVD Video
Видео кодек: MPEG2
Аудио кодек: AC3 (Dolby Digital)
Видео: MPEG 2, 720x576 (4:3), 25.000 fps, 9 800 Kbps (0.123 bit/pixel)
Аудио: AC-3, 48.0 KHz, 2 ch, 192 Kbps, CBR

Скринноты меню:

Скриншоты:

DVDInfo

Title: фильм
Size: 4.16 Gb ( 4 357 326,00 KBytes ) - DVD-5
Enabled regions: 1, 2, 3, 4, 5, 6, 7, 8
VTS_01 :
Play Length: 03:12:56
Video: PAL 4:3 (720x576) VBR
Audio:
Russian (Dolby AC3, 2 ch)
VTS_02 :
Play Length: 03:14:05
Video: PAL 4:3 (720x576) VBR
Audio:
Russian (Dolby AC3, 2 ch)
* Menus Information *
VIDEO_TS Menu
Video:
PAL 4:3 (720x576) VBR
English Language Unit :
Title Menu
VTS_01 Menu
Video:
PAL 4:3 (720x576) VBR
Audio:
Not specified (Dolby AC3, 6 ch)
English Language Unit :
Root Menu
VTS_02 Menu
Video:
PAL 4:3 (720x576) VBR
English Language Unit :
Root Menu

MI

General
Complete name : D:\downloads\фильм\VTS_01_1.VOB
Format : MPEG-PS
File size : 1 024 MiB
Duration : 1h 35mn
Overall bit rate mode : Variable
Overall bit rate : 1 497 Kbps
Video
ID : 224 (0xE0)
Format : MPEG Video
Format version : Version 2
Format profile : Main@Main
Format settings, BVOP : Yes
Format settings, Matrix : Custom
Format settings, GOP : M=3, N=15
Duration : 1h 35mn
Bit rate mode : Variable
Bit rate : 1 276 Kbps
Maximum bit rate : 9 800 Kbps
Width : 720 pixels
Height : 576 pixels
Display aspect ratio : 4:3
Frame rate : 25.000 fps
Standard : PAL
Color space : YUV
Chroma subsampling : 4:2:0
Bit depth : 8 bits
Scan type : Progressive
Scan order : Top Field First
Compression mode : Lossy
Bits/(Pixel*Frame) : 0.123
Time code of first frame : 00:00:00:00
Time code source : Group of pictures header
Stream size : 872 MiB (85%)
Audio
ID : 189 (0xBD)-128 (0x80)
Format : AC-3
Format/Info : Audio Coding 3
Mode extension : CM (complete main)
Format settings, Endianness : Big
Muxing mode : DVD-Video
Duration : 1h 35mn
Bit rate mode : Constant
Bit rate : 192 Kbps
Channel(s) : 2 channels
Channel positions : Front: L R
Sampling rate : 48.0 KHz
Bit depth : 16 bits
Compression mode : Lossy
Stream size : 131 MiB (13%)
Menu
[Торрент-статистика]
[Профиль]  [ЛС] 
Показать сообщения:    
Ответить на тему

Текущее время: Сегодня 09:00

Часовой пояс: GMT + 4



Вы не можете начинать темы
Вы не можете отвечать на сообщения
Вы не можете редактировать свои сообщения
Вы не можете удалять свои сообщения
Вы не можете голосовать в опросах
Вы не можете прикреплять файлы к сообщениям
Вы не можете скачивать файлы