Легенды о Круге / Серии: 1-4 из 4 (Тимур Кабулов) [2013, Драма, биографический, HDTV, 1080i]

Ответить на тему
 
Автор
Сообщение

prim ®

Стаж: 4 года 8 месяцев

Сообщений: 93

Репутация: 23 [+] [-]

Пост 24-Апр-2013 02:45

[Цитировать] 

Легенды о Круге
Год выпуска: 2013
Производство: Россия, Централ Партнершип
Жанр: Драма, биографический
Продолжительность: 4 x ~ 00:44:00
Субтитры: Отсутствуют
Режиссёр: Тимур Кабулов
В ролях: Юрий Кузнецов-Таёжный, Александр Домогаров, Иван Добронравов, Сергей Газаров, Владимир Зайцев, Илья Древнов, Ольга Смирнова, Дарья Калмыкова, Диана Корсс, Александр Кузнецов, Иван Гар
Описание: Михаил Воробьев, прославившийся под псевдонимом Круг, - один популярных в народе исполнителей шансона 1990-х годов, автор «Владимирского централа», «Кольщика» и «Куполов". «Легенды о Круге» первая художественная кинобиография певца. Михаил Круг был застрелен у себя дома в Твери в июле 2002 года. На тот момент ему было 40 лет. Убийство певца до сих пор не раскрыто, однако в фильме «Легенды о Круге» будет изложена авторская версия этих драматических событий. Фильм рассказывает о судьбе известного автора и исполнителя песен Михаила Круга. Его жизнь была яркой и насыщенной: концерты, гастроли, выход новых песен. Он очень любил друзей, хорошую компанию, жену и детей. Но смерть настигла его в самом расцвете творческой славы. Тайна гибели Михаила Круга до сих пор не раскрыта, убийца не найден. Это случилось почти десять лет назад, а песни его живут и по сей день.
Качество: HDTV
Видео кодек: AVC
Аудио кодек: MP2
Видео: AVC, 1920x1080 (16:9), ~ 9177 Кбит/сек, 25,000 кадров/сек
Аудио: MPEG Audio (Version 1) (Layer 2), 48.0 КГц, 2 ch, 224 Кбит/с
Сэмпл: http://multi-up.com/858082

MI

Общее
Идентификатор : 1 (0x1)
Полное имя : Z:\Legendy.o.Kruge.2013.HDTV\Legendy.o.Kruge.1.2013.HDTV.ts
Формат : MPEG-TS
Размер файла : 2,99 Гбайт
Продолжительность : 43 м.
Режим общего битрейта : Переменный
Общий поток : 9892 Кбит/сек
Видео
Идентификатор : 1902 (0x76E)
Идентификатор меню : 1 (0x1)
Формат : AVC
Формат/Информация : Advanced Video Codec
Профиль формата : High@L4.0
Параметр CABAC формата : Да
Параметр ReFrames формата : 3 кадра
Параметр GOP формата : M=4, N=32
Идентификатор кодека : 27
Продолжительность : 43 м.
Битрейт : 9177 Кбит/сек
Ширина : 1920 пикселей
Высота : 1080 пикселей
Соотношение сторон : 16:9
Частота кадров : 25,000 кадров/сек
Стандарт вещания : Component
Цветовое пространство : YUV
Субдискретизация насыщенности : 4:2:0
Битовая глубина : 8 бит
Тип развёртки : Чересстрочная
Порядок развёртки : Верхнее поле первое
Бит/(Пиксели*Кадры) : 0.177
Размер потока : 2,77 Гбайт (93%)
Основные цвета : BT.709
Характеристики трансфера : BT.709
Коэффициенты матрицы : BT.709
Аудио
Идентификатор : 2902 (0xB56)
Идентификатор меню : 1 (0x1)
Формат : MPEG Audio
Версия формата : Version 1
Профиль формата : Layer 2
Идентификатор кодека : 3
Продолжительность : 43 м.
Вид битрейта : Постоянный
Битрейт : 224 Кбит/сек
Каналы : 2 канала
Частота : 48,0 КГц
Метод сжатия : С потерями
Размер потока : 69,3 Мбайт (2%)
Язык : Russian
Текст
Идентификатор : 33 (0x21)-888
Идентификатор меню : 1 (0x1)
Формат : Teletext Subtitle
Язык : Russian
Меню
Идентификатор : 256 (0x100)
Идентификатор меню : 1 (0x1)
Продолжительность : 43 м.
Список : 1902 (0x76E) (AVC) / 2902 (0xB56) (MPEG Audio, Russian) / 33 (0x21) ()
Язык : / Russian

Скриншоты

[Торрент-статистика]
[Профиль]  [ЛС] 
Показать сообщения:    
Ответить на тему

Текущее время: Сегодня 08:40

Часовой пояс: GMT + 4



Вы не можете начинать темы
Вы не можете отвечать на сообщения
Вы не можете редактировать свои сообщения
Вы не можете удалять свои сообщения
Вы не можете голосовать в опросах
Вы не можете прикреплять файлы к сообщениям
Вы не можете скачивать файлы