Легавый / Серии: 1 - 24 из 24 (Рустам Уразаев, Сергей Артимович) [2012, Детектив, криминал, SATRip]

Ответить на тему
 
Автор
Сообщение

awk05 ®

Пол:

Стаж: 4 года 5 месяцев

Сообщений: 1352

Репутация: 275 [+] [-]

Откуда: Западная Украина Ривне

Пост 27-Фев-2013 22:00

[Цитировать] 

Легавый-
Год выпуска: 2012
Страна: Россия, кинокомпания "Star Media"
Жанр: криминал, детектив
Продолжительность: ~ 00:45:59-Режиссер: Рустам Уразаев, Сергей Артимович-В ролях: Эдуард Флёров, Михаил Павлик, Николай Козак, Оксана Гуляева, Анастасия Макеева, Елена Коровчук, Анатолий Кот, Игорь Филиппов, Александр Резалин, Михаил Горевой, Борис Щербаков, Геннадий Венгеров, Сергей Варчук, Алексей Дмитриев (II), Игорь Ясулович, Алексей Секирин, Владислав Резник, Михаил Асанкин, Мария Шамшина, Евгений Мундум, Денис Варенов, Максим Важов, Александр Никольский (II), Мария Кунах, Юрий Брешин, Евгения Дмитриева, Елена Полякова, Сослан Фидаров, Олег Новичев, Сергей Шарифуллин, Дмитрий Лавров (III), Сергей Походаев, Евгений Березовский, Вера Смолина, Джамболат Сланов-
Описание: 1948 год. Бывший фронтовой разведчик, старший лейтенант Юрий Козырев, попавший в плен в последние дни войны и получивший за это срок, выходит из лагеря полностью оправданным и восстановленным в правах. Он едет в свой родной рабочий городок под Москвой, но возвращение не приносит ему большой радости. Юрий узнает, что отец пропал без вести на фронте, мать умерла, а любимая девушка Лариса вышла замуж за другого… На завод, где он до войны работал инженером, с политической статьей его, пусть и полностью реабилитированного, обратно не возьмут. Выбирать не приходится — Юрий устраивается сторожем. И однажды на склад, который Козырев охраняет, бандиты совершают налет. Главным подозреваемым становится Юрий. На него начинается настоящая охота. Он скрывается от милиции и принимает решение первым найти и обезвредить настоящего организатора ограбления. В награду за поимку преступника сам Лаврентий Берия распоряжается назначить Козырева на должность оперуполномоченного уголовного розыска в местное отделение милиции...
Как будут развиваться события, чем заполнятся опасные будни опера, с какими трудностями послевоенного быта придется столкнуться героям фильма и как сложатся их непростые личные отношения – смотрите в новом остросюжетном сериале «Легавый» на НТВ!
-

Тип релиза: SATRip
Контейнер: AVI
Видео кодек: XviD
Аудио кодек: MP3 (MPEG1 Layer 3)
Видео:720x416 (1.73:1), 25 fps, XviD MPEG-4 ~1473 kbps avg, 0.20 bit/pixel
Аудио:48 kHz, MPEG Layer 3, 2 ch, ~192.00 kbps avg- -

Внимание! Раздача ведётся путём добавления новых серий

Внимание! Раздача ведётся путём добавления новых серий при каждом добавлении создётся новый торрент. Чтобы начать докачку новой серии, пользователям необходимо сделать следующее:
(1) остановить скачивание,
(2) удалить старый торрент у себя из клиента (старые серии удалять не надо),
(3) скачать новый торрент и запустить его у себя в клиенте вместо старого, при этом указать клиенту путь в старую папку куда и должно происходить скачивание новых серий.
Ваш клиент при этом должен произвести хеширование (проверку) старой папки (если не производит сам - помогите ему сделать это), и будет докачивать только те серии которых у вас ещё нет. Старые серии при этом не удаляются, а продолжают раздаваться!
Eсли вы уже удалили старые серии, то предотвратить повторную закачку старых серий можно, отжав галочку в соответсвующих местах при запуске нового торрента.

MI

Расположение: E:\СЕРИАЛЫ\Legavyi.2012.SATRip.KinozalSAT\Legavyi.01.2012.SATRip.KinozalSAT.avi
Имя файла: Legavyi.01.2012.SATRip.KinozalSAT.avi
Формат файла: .avi (AVI)
Размер файла: 550.01 MB
Длительность: 45mn 59s
Навигация по главам: Нет
Bitrate (все потоки): 1 672 Kbps
...при помощи: VirtualDubMod 1.5.4.1 (build 2178/release)
...с использованием: VirtualDubMod build 2178/release
Название: Legavyi.01.2012.SATRip.KinozalSAT
Тип потока: Видео
Длительность: 00:45:59
Кодек: MPEG-4 Visual
Кодек/Профиль: Advanced Simple@L5
Кодек/ID: XVID
Размеры изображения: 720 x 416 (16:9)
Частота кадров: 25.000 fps
Размер потока: 484 MiB (88%)
Битрейт: 1 473 Kbps
Цветовое пространство: YUV
Тип развёртки: Progressive
Bits/(Pixel*Frame): 0.197
Глубина пикселя: 8 bits
Библиотека кодирования: XviD 64
Тип потока: Звук #1
Длительность: 00:45:59.328
Кодек: MPEG Audio
Кодек/ID: 55
Частота дискретизации: 48.0 KHz
Каналы: 2 channels
Битрейт: 192 Kbps
Тип битрейта: Constant
Размер потока: 63.2 MiB (11%)

_________________


Последний раз редактировалось: awk05 (2014-01-24 12:45), всего редактировалось 1 раз
[Торрент-статистика]
[Профиль]  [ЛС] 

TYAnCE

Пол:

Стаж: 4 года 11 месяцев

Сообщений: 269

Репутация: 65 [+] [-]

Откуда: Туапсе

Пост 28-Фев-2013 00:19 (спустя 2 часа 19 минут)

[Цитировать] 

Немного подправила аватар ab
проверено

_________________
[Торрент-статистика]
[Профиль]  [ЛС] 
Показать сообщения:    
Ответить на тему

Текущее время: Сегодня 18:19

Часовой пояс: GMT + 4



Вы не можете начинать темы
Вы не можете отвечать на сообщения
Вы не можете редактировать свои сообщения
Вы не можете удалять свои сообщения
Вы не можете голосовать в опросах
Вы не можете прикреплять файлы к сообщениям
Вы не можете скачивать файлы