Метод Лавровой 2 / 1 - 20 серия из 20 (Владислав Николаев, Андрей Ушатинский) [2013 г., детектив, SATRip](полный сезон)

Ответить на тему
 
Автор
Сообщение

awk05 ®

Пол:

Стаж: 4 года 5 месяцев

Сообщений: 1352

Репутация: 275 [+] [-]

Откуда: Западная Украина Ривне

Пост 22-Янв-2013 04:52

[Цитировать] 

Метод Лавровой- Год выпуска: 2013
Производство: Россия
Жанр: Детектив
Продолжительность: ~00:48:00
Субтитры: Нет-Режиссёр: Владислав Николаев, Андрей Ушатинский-В ролях: Юрий Батурин, Дмитрий Блохин, Светлана Ходченкова, Артем Григорьев, Павел Прилучный, Сергей Беляев, Елена Валюшкина, Максим Виноградов, Наталья Тищенко, Борис Невзоров, Алексей Демидов, Андрей Андреев (I), Мария Климова, Елена Коллегова-Описание:Чтобы быть великолепным сыщиком, не нужно уметь играть на скрипке. Не требуется носить идеальные усы. Даже не обязательно курить сигару или употреблять викодин. Сегодня достаточно знать высшую математику, быть красивой блондинкой и уметь превосходно распутывать сложнейшие преступления. И еще необходимо иметь свой метод.
Катя Лаврова — красивая дочка высокопоставленного начальника МВД, отличница с красным дипломом и лучший опер Управления. Она обладает мужской логикой, острым умом и отточенным чувством юмора. Еще недавно ее ждала прекрасная карьера, но неожиданно она ушла из отдела. Причину никому не объяснила. С тех пор работает внештатным консультантом криминальной полиции и помогает в раскрытии самых загадочных преступлений.
В новом сезоне Кате Лавровой и её курсантам предстоит расследовать череду загадочных убийств участников археологической экспедиции, поломать голову над чертовщиной, происходящей в одной из деревень, распутать дело, в котором замешаны оборотни, и спасти от приговора курсанта, обвиняемого в жестоком убийстве.-Качество: SATRip
Формат: AVI
Видео кодек: XviD
Аудио кодек: MP3
Видео: XviD, ~ 1 602 Kbps, 720x400, 25.000 fps, 0.222 bit/pixel
Аудио: MPEG Audio, 2 ch, 128 Кбит/с, 48.0 KHz-
Кинопоск
- -

Главные герои

Светлана Ходченкова — Екатерина Андреевна Лаврова, 27 лет, куратор группы курсантов Академии МВД, в прошлом окончила Академию МВД с красным дипломом и работала в опергруппе. Влюблена в Игоря Леоновского. Очень любит и ценит своих курсантов.
Дмитрий Блохин — Михаил Львович Чиглинцев, 35 лет, майор полиции. Не может разобраться в своих чувствах. Ему нравится Екатерина Лаврова и Марина Никишина.
Павел Прилучный — Родион Александрович Долгов, 19-20 лет, курсант Академии МВД
Ярослав Жалнин — Виталий Сергеевич Миско, 20 лет, курсант Академии МВД, жених, во 2 сезоне муж Варвары Захаровой
Максим Виноградов — Денис Леонидович Саблин, 20 лет, курсант Академии МВД
Вячеслав Шихалеев — Фёдор Петрович Черных, 25 лет, бывший курсант Академии МВД, влюблен в Екатерину Лаврову
Григорий Иванец — Иван Григорьевич Шишкарёв, 25 лет, курсант Академии МВД
Дарья Иванова — Варвара Семёновна Захарова, 21 год, курсантка Академии МВД, невеста, во 2 сезоне жена Виталия Миско
Ольга Дибцева — Марина Михайловна Никишина, 20 лет, курсантка Академии МВД, влюблена в Михаила Чиглинцева
Юрий Батурин — Игорь Георгиевич Леоновский, 37 лет, известный адвокат, приглашённый лектор в Академии МВД.В первых сериях влюбляется в Екатерину Лаврову.
Алёна Ивченко — Лидия Алексеевна Кудилина, 40 лет, подполковник полиции, преподаватель Академии МВД, заместитель начальника Академии по учебной работе, главный недоброжелатель Екатерины Лавровой
Борис Невзоров — Олег Иванович Переверзев, 60 лет, генерал-майор, начальник Академии МВД, друг отца Екатерины Лавровой и всегда помогает ей во всем.
Артём Григорьев — Артем Павлович Захоронок, 26 лет, лейтенант полиции, помощник Михаила Чиглинцева
Дарья Лузина — Александра Анатольевна Вострякова, 28 лет, журналистка, школьная подруга Екатерины Лавровой, её конфидент
Татьяна Лютаева — Антонина Игоревна Лаврова, мать Екатерины Лавровой, вдова генерала
Александр Стефанцов — Вадим Станиславович Усов, 30 лет, актёр, бывший муж Екатерины Лавровой
Александр Дзюба — Александр Зотов, «сводный брат» Екатерины Лавровой, находится в розыске
Ремизов, Михаил - генерал Долгов, отец Родиона, хочет чтобы он ушел от Лавровой

MediaInfo

Расположение: E:\СЕРИАЛЫ\Metod.Lavrovoi.2\Metod.Lavrovoy.s02.e01.2013.XviD.SATRip.avi
Имя файла: Metod.Lavrovoy.s02.e01.2013.XviD.SATRip.avi
Формат файла: .avi (AVI)
Размер файла: 0 Byte(s)
Длительность: 48mn 41s
Навигация по главам: Нет
Bitrate (все потоки): 1 740 Kbps
...при помощи: VirtualDubModRus 1.5.10.2 (build 2542/release)
...с использованием: VirtualDubMod build 2542/release
Название: Metod.Lavrovoy.s02.e01.2013.XviD.SATRip
Тип потока: Видео
Длительность: 00:48:41
Кодек: MPEG-4 Visual
Кодек/Профиль: Advanced Simple@L5
Кодек/ID: XVID
Размеры изображения: 720 x 400 (16:9)
Частота кадров: 25.000 fps
Размер потока: 558 MiB (92%)
Битрейт: 1 602 Kbps
Цветовое пространство: YUV
Тип развёртки: Progressive
Bits/(Pixel*Frame): 0.222
Глубина пикселя: 8 bits
Библиотека кодирования: XviD 64
Тип потока: Звук #1
Длительность: 00:48:40.849
Кодек: MPEG Audio
Кодек/ID: 55
Частота дискретизации: 48.0 KHz
Каналы: 2 channels
Битрейт: 128 Kbps
Тип битрейта: Constant
Размер потока: 44.6 MiB (7%)

Раздача ведётся путём добавления новых серий!

Как закачать отдельный файл?
1. Открыть торрент
2. Снять галки с тех файлов торрента, которые мы не хотим закачивать. Оставляем только на нужных нам файлах (файле).
3. Нажать О.К.
Как докачать новые серии в ту же папку ?
1. Остановить скачивание.
2. Удалить старый торрент у себя из клиента (старые серии удалять не надо)
3. Скачать новый торрент и запустить его у себя в клиенте вместо старого, при этом указать клиенту путь в старую папку куда и должно происходить скачивание новых серий.
Ваш клиент при этом должен произвести хеширование (проверку), и будет докачивать только те серии которых у вас ещё нет. Старые серии при этом не удаляются, а продолжают раздаваться!
«СЕЗОН 1» «СЕЗОН 2»

_________________
[Торрент-статистика]
[Профиль]  [ЛС] 
Показать сообщения:    
Ответить на тему

Текущее время: Сегодня 22:14

Часовой пояс: GMT + 4



Вы не можете начинать темы
Вы не можете отвечать на сообщения
Вы не можете редактировать свои сообщения
Вы не можете удалять свои сообщения
Вы не можете голосовать в опросах
Вы не можете прикреплять файлы к сообщениям
Вы не можете скачивать файлы