Метод Фрейда / Сезон: 1 Серии: 1-12 из 12 (Михаил Вайнберг) [2012, Детектив, HDTVRip]

Ответить на тему
 
Автор
Сообщение

awk05 ®

Пол:

Стаж: 4 года 5 месяцев

Сообщений: 1352

Репутация: 275 [+] [-]

Откуда: Западная Украина Ривне

Пост 09-Янв-2013 18:55

[Цитировать] 

-Метод Фрейда-
Год выпуска: 2012
Страна: Россия / Стар-медиа
Жанр: Детектив, криминал
Продолжительность: ~00:50:00-Режиссер: Михаил Вайнберг-В ролях: Иван Охлобыстин, Наталия Антонова, Елена Николаева (II), Павел Прилучный, Артур Ваха, Алексей Гришин, Александр Кузнецов, Наталья Рычкова, Алла Подчуфарова, Маргарита Быстрякова, Яна Чигир, Анна Каменкова, Денис Старков, Азамат Нигманов, Александр Воробьёв (II), Вячеслав Яковлев, Виктор Маркин (II), Юрий Борисов (II)-Описание: В следственный отдел прокуратуры введен специальный консультант, гражданский человек Роман Фрейдаков, психолог по образованию. Его появление обусловлено необходимостью применения нетрадиционных методов борьбы с преступностью. В молодости Фрейдин объездил всю Россию и Европу, общался с людьми самых разных профессий — от квалифицированных психоаналитиков до народных колдунов и гадалок, от признанных ученых до карточных игроков с сомнительной репутацией. В расследовании преступлений Фрейдин опирается на интуицию и использует научные методики, воссоздает биокинетические картины событий, психофизические портреты преступников, прогнозирует действия бандитов. И каждый раз «залезая в голову» преступника, Фрейдин понимает, что трагедии можно было избежать, и что зачастую человек, нарушивший закон, не мрачный злодей, а запутавшаяся в жизненных обстоятельствах душа.-качество: HDTVRip
Контейнер: AVI
Видео кодек: MPEG-4 Visual
Аудио кодек: MP3 (MPEG1 Layer 3)
Видео: 704 x 400 (16:9), 25 fps, MPEG-4, 576 MiB (92%) ~1 597 Kbps 0.227 bit/pixel
Аудио: 48 kHz, MPEG Layer 3, 2 ch, ~128.00 kbps avg-КиноПоиск-

Внимание! Раздача ведётся путём добавления новых серий

Раздача ведётся путём добавления новых серий; при каждом добавлении создаётся новый торрент. Чтобы начать докачку новой серии, пользователям необходимо сделать следующее:
(1) остановить скачивание,
(2) удалить старый торрент у себя из клиента (старые серии удалять не надо),
(3) скачать новый торрент и запустить его у себя в клиенте вместо старого, при этом указать клиенту путь в старую папку куда и должно происходить скачивание новых серий.
Ваш клиент при этом должен произвести хеширование (проверку) старой папки (если не производит сам - помогите ему сделать это), и будет докачивать только те серии которых у вас ещё нет. Старые серии при этом не удаляются, а продолжают раздаваться!
Eсли вы уже удалили старые серии, то предотвратить повторную закачку старых серий можно, отжав галочку в соответствующих местах при запуске нового торрента. По возможности, желательно не удалять старые серии как можно дольше чтобы релизёр не столько продолжал раздавать старые серии, а смог сконцентрироваться на новых.-Как закачать отдельный файл?:
1. Открыть торрент.
2. Снять галки с тех файлов торрента, которые мы не хотим закачивать. Оставляем только на нужных нам файлах (файле).
3. Нажать О.К.

MediaInfo

Расположение: E:\СЕРИАЛЫ\Метод Фрейда\Метод Фрейда_01.avi
Имя файла: Метод Фрейда_01.avi
Формат файла: .avi (AVI)
Размер файла: 0 Byte(s)
Длительность: 50mn 23s
Навигация по главам: Нет
Bitrate (все потоки): 1 738 Kbps
...с использованием: Boilsoft AVI tool build 1/release
Название: Метод Фрейда_01
Тип потока: Видео
Длительность: 00:50:23
Кодек: MPEG-4 Visual
Кодек/Профиль: Simple@L3
Кодек/ID: DX50
Размеры изображения: 704 x 400 (16:9)
Частота кадров: 25.000 fps
Размер потока: 576 MiB (92%)
Битрейт: 1 597 Kbps
Цветовое пространство: YUV
Тип развёртки: Progressive
Bits/(Pixel*Frame): 0.227
Глубина пикселя: 8 bits
Библиотека кодирования: XviD 1.2.1 (UTC 2008-12-04)
Тип потока: Звук #1
Длительность: 00:50:23.472
Кодек: MPEG Audio
Кодек/ID: 55
Частота дискретизации: 48.0 KHz
Каналы: 2 channels
Битрейт: 128 Kbps
Тип битрейта: Constant
Размер потока: 46.1 MiB (7%)

Скриншоты


_________________


Последний раз редактировалось: awk05 (2013-11-07 14:16), всего редактировалось 5 раз(а)
[Торрент-статистика]
[Профиль]  [ЛС] 

Пост 16-Янв-2013 00:46 (спустя 6 дней)

Сообщения из этой темы были выделены в отдельный топик Помогите сделать рип, с исходника спутникового HD канала!
ArtZak
 
Показать сообщения:    
Ответить на тему

Текущее время: Сегодня 08:39

Часовой пояс: GMT + 4



Вы не можете начинать темы
Вы не можете отвечать на сообщения
Вы не можете редактировать свои сообщения
Вы не можете удалять свои сообщения
Вы не можете голосовать в опросах
Вы не можете прикреплять файлы к сообщениям
Вы не можете скачивать файлы