Предатель 1-12 серии (Станислав Титаренко) [2012 г., Боевик, триллер, криминал, SATRip]

Ответить на тему
 
Автор
Сообщение

awk05 ®

Пол:

Стаж: 4 года 5 месяцев

Сообщений: 1352

Репутация: 275 [+] [-]

Откуда: Западная Украина Ривне

Пост 09-Янв-2013 04:19

[Цитировать] 

Предатель
Год выпуска: 2012
Страна: Россия, Форвард-Фильм, Прогресс-Студия
Жанр: Боевик, триллер, криминал
Продолжительность: 12 x ~ 00:45:00
Режиссер: Станислав Титаренко
В ролях: Роман Полянский, Елена Радевич, Денис Синявский, Андрей Ребров, Дмитрий Сутырин, Сергей Колос, Анатолий Журавин, Анна Арефьева, Яков Шамшин, Олег Куликович
Описание: Когда-то опер из управления по борьбе с наркотиками Игорь Ребров пришел на работу с благими намерениями, но окружающий быт и условия сильно на него повлияли. Когда вокруг все зарабатывают деньги, трудно остаться белой вороной. И Игорь становится «как все»: крышует торговцев, решает вопросы для коммерсантов, организует передачу взяток и помогает рейдерам. Однажды Игоря просят посодействовать в освобождении преступного авторитета. Для решения вопроса он договаривается о своем включении в следственную бригаду. Главным следователем по этому делу оказывается очень принципиальная молодая девушка Ольга Баренцева. С ней нельзя договориться. Она ничего не боится. Игорю приходится действовать осторожно и мягко, втираясь к ней в доверие. В какой-то момент Игорь поймёт, что эта девушка для него много значит – и далеко не только по работе. Судьба поставит его перед выбором. Какой выбор сделает Игорь?
Тип релиза: SATRip
Контейнер: AVI
Видео кодек: XviD
Аудио кодек: MP3 (MPEG1 Layer 3)
Видео: 720 x 400 (16:9), 25.000 fps, 1 665 Kbps, Bits/(Pixel*Frame): 0.231
Аудио: MP3, 48 kHz, 2ch, 192 Кбит/с

МІ

Расположение: E:\СЕРИАЛЫ\Predatel.01-12.seriya.iz.12.2012.SATRip-files-x\Predatel.10.seriya.2012.SATRip-files-x.avi
Имя файла: Predatel.1seriya.2012.SATRip-files-x.avi
Формат файла: .avi (AVI)
Размер файла: 601.76 MB
Длительность: 45mn 4s
Навигация по главам: Нет
Bitrate (все потоки): 1 867 Kbps
...при помощи: VirtualDubMod 1.5.10.3 | www.virtualdub-fr.org || (build 2550/release)
...с использованием: VirtualDubMod build 2550/release
Название: Predatel.10.seriya.2012.SATRip-files-x
Тип потока: Видео
Длительность: 00:45:04
Кодек: MPEG-4 Visual
Кодек/Профиль: Advanced Simple@L5
Кодек/ID: XVID
Размеры изображения: 720 x 400 (16:9)
Частота кадров: 25.000 fps
Размер потока: 537 MiB (89%)
Битрейт: 1 665 Kbps
Цветовое пространство: YUV
Тип развёртки: Progressive
Bits/(Pixel*Frame): 0.231
Глубина пикселя: 8 bits
Библиотека кодирования: XviD 1.2.1 (UTC 2008-12-04)
Тип потока: Звук #1
Длительность: 00:45:04.080
Кодек: MPEG Audio
Кодек/ID: 55
Частота дискретизации: 48.0 KHz
Каналы: 2 channels
Битрейт: 192 Kbps
Тип битрейта: Constant
Размер потока: 61.9 MiB (10%)

Скриншоты


_________________
[Торрент-статистика]
[Профиль]  [ЛС] 
Показать сообщения:    
Ответить на тему

Текущее время: Сегодня 10:09

Часовой пояс: GMT + 4



Вы не можете начинать темы
Вы не можете отвечать на сообщения
Вы не можете редактировать свои сообщения
Вы не можете удалять свои сообщения
Вы не можете голосовать в опросах
Вы не можете прикреплять файлы к сообщениям
Вы не можете скачивать файлы