Игра / Сезон: 1 Серии: 1-20 из 20 (Георгий Гаврилов, Сергей Лесогоров, Геннадий Иванов, Тимур Алпатов) [2011 г., драма, криминал, детектив, SATRip]

Ответить на тему
 
Автор
Сообщение

awk05 ®

Пол:

Стаж: 4 года 5 месяцев

Сообщений: 1352

Репутация: 275 [+] [-]

Откуда: Западная Украина Ривне

Пост 30-Дек-2012 18:02

[Цитировать] 

--Игра-- Год выпуска: 2011
Страна: Россия DIXI TV
Жанр: драма, криминал, детектив
Продолжительность: 00:49:37 x 20
Перевод: оригинал--Режиссер:Георгий Гаврилов, Сергей Лесогоров, Геннадий Иванов, Тимур Алпатов
--В ролях: Прохор Дубравин(Виталий Емашов), Павел Баршак, Иван Теплов, Дарья Повереннова, Наталья Левина, Владимир Фекленко, Спартак Сумченко, Мария Горбань, Андрей Лебедев, Георгий Сегал, Михаил Хмуров и др.
--Описание: Сериал расскажет о противостоянии двух невероятно сильных личностей: следователя ФСБ Белова и отчаянного бандита Смолина, которые, однажды столкнувшись, станут личными врагами на всю жизнь. Это будет захватывающий поединок между равновеликими фигурами, одного из которых ведут правильные и положительные чувства и эмоции, второго - самые низменные пороки и страсти.--Тип релиза:SATRip
Контейнер: AVI
Видео кодек:DivX
Аудио кодек: MP3 (MPEG1 Layer 3)
Видео: 704x384 (1.83:1), 25 fps, XviD MPEG-4 ~1404 kbps avg, 0.21 bit/pixel
Аудио: 48 kHz, MPEG Layer 3, 2 ch, ~128.00 kbps avg.--

MI

General
Расположение: E:\СЕРИАЛЫ\Igra.2011.SATRip [riperam]\Igra.01.avi
Имя файла: Igra.01.avi
Формат файла: .avi (AVI)
Размер файла: 547.55 MB
Длительность: 49mn 37s
Навигация по главам: Нет
Bitrate (все потоки): 1 543 Kbps
...при помощи: VirtualDubMod 1.5.10.2 (build 2540/release)
...с использованием: VirtualDub build 32842/release
Название: Igra.01
Тип потока: Видео
Длительность: 00:49:37
Кодек: MPEG-4 Visual
Кодек/Профиль: Advanced Simple@L5
Кодек/ID: XVID
Размеры изображения: 704 x 384 (16:9)
Частота кадров: 25.000 fps
Размер потока: 499 MiB (91%)
Битрейт: 1 405 Kbps
Цветовое пространство: YUV
Тип развёртки: Progressive
Bits/(Pixel*Frame): 0.208
Глубина пикселя: 8 bits
Библиотека кодирования: XviD 63
Тип потока: Звук #1
Длительность: 00:49:37.224
Кодек: MPEG Audio
Кодек/ID: 55
Частота дискретизации: 48.0 KHz
Каналы: 2 channels
Битрейт: 128 Kbps
Тип битрейта: Constant
Размер потока: 45.4 MiB (8%)

Скриншоты


_________________
[Торрент-статистика]
[Профиль]  [ЛС] 
Показать сообщения:    
Ответить на тему

Текущее время: Сегодня 03:55

Часовой пояс: GMT + 4



Вы не можете начинать темы
Вы не можете отвечать на сообщения
Вы не можете редактировать свои сообщения
Вы не можете удалять свои сообщения
Вы не можете голосовать в опросах
Вы не можете прикреплять файлы к сообщениям
Вы не можете скачивать файлы