Остров ненужных людей / Сезон: 1 Серии: 1-24 из 24 (Эдуард Парри) [2012, драма, приключения, DVDRip]

Ответить на тему
 
Автор
Сообщение

Волк ®

Пол:

Стаж: 5 лет 1 месяц

Сообщений: 689

Репутация: 292 [+] [-]

Откуда: Армения

Пост 18-Авг-2012 20:23

[Цитировать] 

Остров ненужных людей- Год выпуска: 2012
Производство: Стар-медиа
Жанр: драма, приключения
Продолжительность: 00:42:00
Субтитры: отсутствуют-Режиссёр: Эдуард Парри-В ролях: Дмитрий Ульянов, Эльвира Болгова, Нелли Пшенная, Александр Панкратов-Черный, Юлия Силаева, Александр Робак, Павел Трубинер, Константин Милованов, Галина Звягинцева, Екатерина Стулова-Описание: Преуспевающий бизнесмен Андрей Каморин несчастлив в семейной жизни. Он бы давно бросил жену Лизу, но на нее записано все имущество. После очередного скандала Андрей предлагает ей поехать с ним в круиз под предлогом, что совместное путешествие поможет им наладить отношения...Группа туристов из тринадцати человек, включая Лизу и Андрея, прилетает в азиатскую страну, но вместо экзотического путешествия их ожидает суровое испытание. Потерпев кораблекрушение, они спасаются на необитаемом острове. Несчастным предстоит выживать. Каждый использует свои навыки, чтобы занять нишу в новом социуме. Находит её и Лиза. Начитавшись детективов, она начинает собственное расследование обстоятельств, при которых их пестрая компания оказалась на острове и заставляет всех вспомнить своё прошлое. Лиза обнаруживает странную закономерность: все они когда-то были связаны между собой. Кто-то узнает родственника, кто-то — коллегу либо конкурента, которому мешал. И только Андрей уклоняется от расспросов жены — в своем плане по избавлению от нее он не учел, что поправки в их дальнейшую судьбу внесет не он, а Высшие силы...-СЕМПЛ-Качество: DVDRip
Формат: AVI
Видео кодек: XviD
Аудио кодек: AC3
Видео: 720x400 (1.80:1), 25 fps, XviD build 64 ~1729 kbps avg, 0.24 bit/pixel
Аудио: 48 kHz, AC3 Dolby Digital, 2/0 (L,R) ch, ~192 kbps-

MediaInfo

Формат : AVI
Формат/Информация : Audio Video Interleave
Размер файла : 600 Мбайт
Продолжительность : 43 м.
Общий поток : 1931 Кбит/сек
Программа кодирования : VirtualDubMod 1.5.10.3 | www.virtualdub-fr.org || (build 2550/release)
Библиотека кодирования : VirtualDubMod build 2550/release
Видео
Идентификатор : 0
Формат : MPEG-4 Visual
Профиль формата : Advanced Simple@L5
Параметр BVOP формата : 2
Параметр QPel формата : Нет
Параметр GMC формата : Без точки перехода
Параметр матрицы формата : Default (MPEG)
Идентификатор кодека : XVID
Идентификатор кодека/Подсказка : XviD
Продолжительность : 43 м.
Битрейт : 1730 Кбит/сек
Ширина : 720 пикселей
Высота : 400 пикселей
Соотношение сторон : 16:9
Частота кадров : 25,000 кадров/сек
Цветовое пространство : YUV
Субдискретизация насыщенности : 4:2:0
Битовая глубина : 8 бит
Тип развёртки : Прогрессивная
Метод сжатия : С потерями
Бит/(Пиксели*Кадры) : 0.240
Размер потока : 537 Мбайт (90%)
Библиотека кодирования : XviD 64
Аудио
Идентификатор : 1
Формат : AC-3
Формат/Информация : Audio Coding 3
Расширение режима : CM (complete main)
Идентификатор кодека : 2000
Продолжительность : 43 м.
Вид битрейта : Постоянный
Битрейт : 192 Кбит/сек
Каналы : 2 канала
Расположение каналов : Front: L R
Частота : 48,0 КГц
Битовая глубина : 16 бит
Метод сжатия : С потерями
Размер потока : 59,6 Мбайт (10%)
Выравнивание : Разделение по промежуткам
Продолжительность промежутка : 40 мс. (1,00 видеокадр)
Время предзагрузки промежутка : 500 мс.
-

Скриншоты

-

Скриншот с названием

[Торрент-статистика]
[Профиль]  [ЛС] 

AlexusA

Пол:

Стаж: 4 года 9 месяцев

Сообщений: 226

Репутация: 45 [+] [-]

Откуда: Нижний Новгород

Пост 28-Авг-2012 10:34 (спустя 9 дней)

[Цитировать] 

Кто нибудь смотрел? как сериал? Типа наш ответ Лосту? ab

_________________
[Торрент-статистика]
[Профиль]  [ЛС] 

Chet

Пол:

Стаж: 5 лет 1 месяц

Сообщений: 1866

Репутация: 363 [+] [-]

Откуда: UA

Пост 28-Авг-2012 16:16 (спустя 5 часов)

[Цитировать] 

Кто нибудь смотрел?
Я смотрел ab
Мне понравился... А "Лост" не смотрел, разве что парочку серий вначале.
[Торрент-статистика]
[Профиль]  [ЛС] 
Показать сообщения:    
Ответить на тему

Текущее время: Сегодня 18:23

Часовой пояс: GMT + 4



Вы не можете начинать темы
Вы не можете отвечать на сообщения
Вы не можете редактировать свои сообщения
Вы не можете удалять свои сообщения
Вы не можете голосовать в опросах
Вы не можете прикреплять файлы к сообщениям
Вы не можете скачивать файлы