Знахарь 2: Охота без правил / Серии: 1-20 из 20 (Борис Казаков) [2011, Драма, криминал, SATRip]

Ответить на тему
 
Автор
Сообщение

Волк ®

Пол:

Стаж: 5 лет

Сообщений: 689

Репутация: 292 [+] [-]

Откуда: Армения

Пост 18-Авг-2012 20:06

[Цитировать] 

Знахарь 2: Охота без правил- Год выпуска: 2011
Производство: Студия Анкор
Жанр: Драма, криминал
Продолжительность: ~ 00:45:00
Субтитры: Отсутствуют-Режиссёр: Борис Казаков-В ролях: Андрей Смелов, Дарья Волга, Мария Горбань, Александр Терешко, Дмитрий Комов, Игорь Миркурбанов, Рустам Уразаев, Алексей Гришин, Александр Носик, Олег Васильков, Константин Желдин, Сергей Барышев, Алексей Ошурков, Антон Колесников, Иван Агапов, Станислав Шмелев, Павел Сметанкин, Яна Куц, Руслан Хабиев, Петр Томашевский, Денис Курочка, Армандс Нейландс-Яунземс, Олег Чудницов, Александр Яцко, Александр Денисов (III), Андрей Свиридов, Виктор Фалалеев-Описание: Объявив Разина мертвым и устроив ему фальшивые похороны, Губанов прячет Знахаря в больнице, чтобы использовать его в качестве приманки для Паука (рано или поздно киллер поймет, что его жертва все еще жива). Олеся считает, что гибель Разина была кем-то подстроена, и делится своими подозрениями с Марком. Разыграв приступ, Знахарь сбегает из больницы, и обращается за помощью к другу Вадиму.-Сэмпл-Качество: SATRip
Формат: AVI
Видео кодек: XviD
Аудио кодек: MP3
Видео: 704x336 (16:9), 25 fps, XviD MPEG-4 Visual, Битрейт ~1201 kbps avg, ~ 0.203 bit/pixel
Аудио: 48000 kHz, MPEG 1 or 2 Audio Layer 3 (MP3), 128kbps
-

MI

General
Complete name : C:\Знахарь 2_01 серия_2011_SATRip_SVAT.avi
Format : AVI
Format/Info : Audio Video Interleave
File size : 441 MiB
Duration : 46mn 6s
Overall bit rate : 1 338 Kbps
Writing application : VirtualDubMod 1.5.10.3 | www.virtualdub-fr.org || (build 2550/release)
Writing library : VirtualDubMod build 2550/release
Video
ID : 0
Format : MPEG-4 Visual
Format profile : Advanced Simple@L5
Format settings, BVOP : 2
Format settings, QPel : No
Format settings, GMC : No warppoints
Format settings, Matrix : Default (MPEG)
Codec ID : XVID
Codec ID/Hint : XviD
Duration : 46mn 6s
Bit rate : 1 201 Kbps
Width : 704 pixels
Height : 336 pixels
Display aspect ratio : 2.095
Frame rate : 25.000 fps
Color space : YUV
Chroma subsampling : 4:2:0
Bit depth : 8 bits
Scan type : Progressive
Compression mode : Lossy
Bits/(Pixel*Frame) : 0.203
Stream size : 396 MiB (90%)
Writing library : XviD 64
Audio
ID : 1
Format : MPEG Audio
Format version : Version 1
Format profile : Layer 3
Codec ID : 55
Codec ID/Hint : MP3
Duration : 46mn 6s
Bit rate mode : Constant
Bit rate : 128 Kbps
Channel(s) : 2 channels
Sampling rate : 48.0 KHz
Compression mode : Lossy
Stream size : 42.2 MiB (10%)
Alignment : Aligned on interleaves
Interleave, duration : 40 ms (1.00 video frame)
Interleave, preload duration : 504 ms
Writing library : LAME3.98r
Encoding settings : -m s -V 4 -q 2 -lowpass 17 -b 128
-

Скриншоты

[Торрент-статистика]
[Профиль]  [ЛС] 
Показать сообщения:    
Ответить на тему

Текущее время: Сегодня 20:33

Часовой пояс: GMT + 4



Вы не можете начинать темы
Вы не можете отвечать на сообщения
Вы не можете редактировать свои сообщения
Вы не можете удалять свои сообщения
Вы не можете голосовать в опросах
Вы не можете прикреплять файлы к сообщениям
Вы не можете скачивать файлы