Офицеры, полные сезоны 1-2 (Мурад Алиев, Зиновий Ройзман) [2006, 2009 г., Боевик, Драма, Военный, DVDRip]

Ответить на тему
 
Автор
Сообщение

awk05 ®

Пол:

Стаж: 4 года 5 месяцев

Сообщений: 1352

Репутация: 275 [+] [-]

Откуда: Западная Украина Ривне

Пост 17-Июн-2012 14:26

[Цитировать] 

--Офицеры, полный 1 сезон. 8 серий.--Год выпуска: 2006
Страна: Россия
Жанр: Боевик, драма, военный
Сезон/Серия: Сезон:1 /Серия 1-8 из 8
Продолжительность: 8 х 00:50:00
Субтитры: отсутствуют--Режиссер: Мурад Алиев--В ролях: Алексей Макаров, Сергей Горобченко, Эльвира Болгова, Александр Балуев, Александр Дедюшко, Михаил Ефремов, Алексей Маклаков, Василий Лановой--Описание: Их отцы и деды сражались в гражданскую войну, воевали в Испании, прошли Великую Отечественную. На долю их потомков выпали не менее трудные испытания, среди которых Афганистан, служба на окраинах империи. Егор Осоргин по кличке Ставр и Александр Гайдамак по кличке Шуракен (в спецназе положено иметь прозвища) - офицеры, друзья, все тяготы они делят пополам. Но они же соперники - оба влюблены в Женю, - а любовь не делится. Захватывающие, полные опасностей приключения друзей придумала драматург Елена Караваешникова (сценарист сериала "Две судьбы"), режиссер - Мурад Алиев. Василий Лановой когда-то снимался в фильме "Офицеры". Сериал, выпущенный в 2006 году, не продолжение давнего фильма, в котором Василий Семенович играет генерала Осоргина, отца Ставра...--Качество: DVDRip
Контейнер: AVI
Видео кодек: XviD
Аудио кодек: AC3 (Dolby Digital)
Видео: XviD, ~ 1351 Кбит/с, 704x400, 16:9, 25.000 fps, Bits/(Pixel*Frame): 0.192
Аудио: 48 kHz, AC3 Front: L C R, Side: L R, LFE, 6 ch, 448 Кбит/с-- --

MediaInfo

General
Complete name : E:\СЕРИАЛЫ\Oficeri.1-2.sezoni.(16.serii.iz.16).2006-2009\Oficeri.1.sezon.(8.serii.iz.8).2006\Oficeri.1.sezon.(1.seriya.iz.8).2006.XviD.DVDRiр.avi
Format : AVI
Format/Info : Audio Video Interleave
File size : 650 MiB
Duration : 50mn 20s
Overall bit rate : 1 806 Kbps
Writing application : VirtualDubMod 1.5.4.1 (build 2178/release)
Writing library : VirtualDubMod build 2178/release
Video
ID : 0
Format : MPEG-4 Visual
Format profile : Advanced Simple@L5
Format settings, BVOP : 1
Format settings, QPel : No
Format settings, GMC : No warppoints
Format settings, Matrix : Custom
Codec ID : XVID
Codec ID/Hint : XviD
Duration : 50mn 20s
Bit rate : 1 351 Kbps
Width : 704 pixels
Height : 400 pixels
Display aspect ratio : 16:9
Frame rate : 25.000 fps
Color space : YUV
Chroma subsampling : 4:2:0
Bit depth : 8 bits
Scan type : Progressive
Compression mode : Lossy
Bits/(Pixel*Frame) : 0.192
Stream size : 486 MiB (75%)
Writing library : XviD 1.3.0.dev55
Audio
ID : 1
Format : AC-3
Format/Info : Audio Coding 3
Mode extension : CM (complete main)
Format settings, Endianness : Big
Codec ID : 2000
Duration : 50mn 20s
Bit rate mode : Constant
Bit rate : 448 Kbps
Channel count : 6 channels
Channel positions : Front: L C R, Side: L R, LFE
Sampling rate : 48.0 KHz
Bit depth : 16 bits
Compression mode : Lossy
Stream size : 161 MiB (25%)
Alignment : Split accross interleaves
Interleave, duration : 96 ms (2.40 video frames)
Interleave, preload duration : 96 ms
Language : Russian
-- --Офицеры, полный 2 сезон. 8 серий.--Год выпуска: 2009
Страна: Россия
Жанр: Боевик, драма, военный
Сезон/Серия: Сезон:2 /Серия 1-8 из 8
Продолжительность: 8 х 00:50:00
Субтитры: отсутствуют--Режиссер: Зиновий Ройзман--В ролях: Сергей Горобченко, Алексей Макаров, Даниил Спиваковский, Екатерина Вуличенко, Михаил Жигалов, Борис Химичев, Анастасия Макеева, Алла Ковнир, Равшана Куркова, Юрий Пономаренко, Игорь Савочкин--Описание: Продолжение рейтингового сериала о высокопрофессиональных работниках спецслужб, чей долг оказываться в самых горячих военных точках и справляться с самыми серьезными секретными заданиями. Наше время — лучших друзей и напарников Осоргина и Гайдамака вновь ждут головокружительные приключения. И как всегда у наших героев или «все будет хорошо», или «все будет плохо…»--Качество: DVDRip
Контейнер: AVI
Видео кодек: XviD
Аудио кодек: AC3 (Dolby Digital)
Видео: XviD, ~ 1297 Кбит/с, 704x400, 16х9, 25.000 fps, Bits/(Pixel*Frame) 0.184
Аудио: 48 kHz, AC3 Front: L C R, Side: L R, LFE , 6 ch, 448 Кбит/с-- --

MediaInfo

General
Complete name : E:\СЕРИАЛЫ\Oficeri.1-2.sezoni.(16.serii.iz.16).2006-2009\Oficeri.2.sezon.(8.serii.iz.8).2009\Oficeri.2.sezon.(1.seriya.iz.8).2009.XviD.DVDRip.avi
Format : AVI
Format/Info : Audio Video Interleave
File size : 652 MiB
Duration : 52mn 1s
Overall bit rate : 1 752 Kbps
Writing application : VirtualDubMod 1.5.4.1 (build 2178/release)
Writing library : VirtualDubMod build 2178/release
Video
ID : 0
Format : MPEG-4 Visual
Format profile : Advanced Simple@L5
Format settings, BVOP : 1
Format settings, QPel : No
Format settings, GMC : No warppoints
Format settings, Matrix : Custom
Codec ID : XVID
Codec ID/Hint : XviD
Duration : 52mn 1s
Bit rate : 1 297 Kbps
Width : 704 pixels
Height : 400 pixels
Display aspect ratio : 16:9
Frame rate : 25.000 fps
Color space : YUV
Chroma subsampling : 4:2:0
Bit depth : 8 bits
Scan type : Progressive
Compression mode : Lossy
Bits/(Pixel*Frame) : 0.184
Stream size : 483 MiB (74%)
Writing library : XviD 1.2.0.dev47 (UTC 2006-11-01)
Audio
ID : 1
Format : AC-3
Format/Info : Audio Coding 3
Mode extension : CM (complete main)
Format settings, Endianness : Big
Codec ID : 2000
Duration : 52mn 0s
Bit rate mode : Constant
Bit rate : 448 Kbps
Channel count : 6 channels
Channel positions : Front: L C R, Side: L R, LFE
Sampling rate : 48.0 KHz
Bit depth : 16 bits
Compression mode : Lossy
Stream size : 167 MiB (26%)
Alignment : Split accross interleaves
Interleave, duration : 96 ms (2.40 video frames)
Interleave, preload duration : 96 ms
Language : Russian

_________________


Последний раз редактировалось: awk05 (2012-06-18 21:53), всего редактировалось 2 раз(а)
[Торрент-статистика]
[Профиль]  [ЛС] 
Показать сообщения:    
Ответить на тему

Текущее время: Сегодня 08:39

Часовой пояс: GMT + 4



Вы не можете начинать темы
Вы не можете отвечать на сообщения
Вы не можете редактировать свои сообщения
Вы не можете удалять свои сообщения
Вы не можете голосовать в опросах
Вы не можете прикреплять файлы к сообщениям
Вы не можете скачивать файлы