Топи / Swamp (Сезон 1 , Серия 1-7 из 7 ) ( Владимир Мирзоев) [2021, Триллер, мистика, WEB-DLRip - HEVC - 1080p]+[Subs Rus

Ответить на тему
 
Автор
Сообщение

Враг Нароода ®

Пол:

Стаж: 3 года 3 месяца

Сообщений: 234

Репутация: 294 [+] [-]

Откуда: Красногорск

Пост 01-Фев-2021 14:18

[Цитировать] 

---- -- Топи / Swamp - (Сезон 1 , Серия 1- 7 из 7 ) - Полный Комплект ----Год выпуска: 2021
Выпущено: Россия , КиноПоиск HD, Медиа Юниверсал Ивент
Жанр: Триллер, мистика
Продолжительность 00:53:00
Сезон:1
Серия:1-7
Количество серий в сезоне:7 --Озвучка #1: - Оригинал - Русский
Озвучка #2: - +18 Оригинал - Русский --Субтитры (UTF-8): вшитые
#1 - Русские - Russian (включены по умолчанию)
--Релиз Без Рекламы - Ненормативная лексика -
-- --Режиссер: Владимир Мирзоев --В ролях: Иван Янковский, Тихон Жизневский, Катерина Шпица, Софья Володчинская, Анастасия Крылова, Максим Суханов, Марина Васильева (II), Александра Бортич, Гела Месхи, Александр Доронин, Татьяна Владимирова -- Столкнувшись с неразрешимыми проблемами, пять молодых москвичей убегают в монастырь неподалеку от полузаброшенной деревни Топи. Они воспринимают поездку как приключение, долгожданную свободу от забот и возможность забыться. Однако путешествие оборачивается чередой загадочных событий, которые лишь приближают то, от чего они бежали, и заставляют сомневаться в реальности происходящего. -- --Качество : -WEB-DLRip - HEVC - 1080p.
Формат: MKV
Видео кодек: H265
Видео: 2666 Кбит/сек,1920х818 (235.1),в 25.000 кадр/сек, HEVC (Main10@L5.2@Main)--Аудио Кодек: AC3
Аудио #1: Original@DD5.1 Е-AC3 , 320 Kbps, 48.0 KHz, 6 ch6 ch - Оригинал - Русский
Аудио #2: +18 Original@DD5.1 Е-AC3 , 320 Kbps, 48.0 KHz, 6 ch - Оригинал - Русский --

Доп. информация:

Звуковая дорожка сделана путем наложения чистого голоса озвучивателей на центральный канал оригинальной дорожки. Качество идентично звуковой дорожке.
--

Список эпизодов сезона


Серия 1. Введение
Серия 2. Исчезновение
Серия 3. Воскрешение
Серия 4. Исступление
Серия 5. Преображение
Серия 6. Подношение
Серия 7. Искупление
--

MediaInfo 1Сезон

Общее
Уникальный идентификатор : 285511241998707884004984085122323401209 (0xD6CB770D05A2E8B50DC3BF4821E549F9)
Полное имя : D:\Топи - Swamp\2021_Swamp_S01_HEVC- 10Bit_Н265_DD5.1_N.B_HD_1080_Rus\2021_Swamp_S01E01-E03_HEVC_DD5.1_N.B_HD_1080_Rus.mkv
Формат : Matroska
Версия формата : Version 4
Размер файла : 3,89 Гбайт
Продолжительность : 2 ч. 48 м.
Общий поток : 3 308 Кбит/сек
Название фильма : 2021 Swamp S01E01-E03 @ Nikolai.Baranov & PIRATIYA
Дата кодирования : UTC 2021-02-01 07:46:28
Программа кодирования : mkvmerge v53.0.0 ('Fool's Gold') 64-bit
Библиотека кодирования : libebml v1.4.1 + libmatroska v1.6.2
Видео
Идентификатор : 1
Формат : HEVC
Формат/Информация : High Efficiency Video Coding
Профиль формата : Main 10@L5.2@Main
Идентификатор кодека : V_MPEGH/ISO/HEVC
Продолжительность : 2 ч. 48 м.
Битрейт : 2 666 Кбит/сек
Ширина : 1 920 пикселей
Высота : 816 пикселей
Соотношение сторон : 2,35:1
Режим частоты кадров : Постоянный
Частота кадров : 25,000 кадров/сек
Цветовое пространство : YUV
Субдискретизация насыщенности : 4:2:0
Битовая глубина : 10 бит
Бит/(Пиксели*Кадры) : 0.068
Размер потока : 3,14 Гбайт (81%)
Заголовок : 2021_Swamp_S01E01-E03_HEVC_DD5.1_N.B_HD_1080_Rus
Язык : Russian
Default : Да
Forced : Нет
Цветовой диапазон : Full
Основные цвета : BT.709
Характеристики трансфера : BT.709
Коэффициенты матрицы : BT.709
Аудио #1
Идентификатор : 3
Формат : E-AC-3
Формат/Информация : Enhanced AC-3
Коммерческое название : Dolby Digital Plus
Идентификатор кодека : A_EAC3
Продолжительность : 2 ч. 48 м.
Вид битрейта : Постоянный
Битрейт : 320 Кбит/сек
Каналы : 6 каналов
Channel layout : L R C LFE Ls Rs
Частота : 48,0 КГц
Частота кадров : 31,250 кадров/сек (1536 SPF)
Метод сжатия : С потерями
Размер потока : 386 Мбайт (10%)
Заголовок : Original@DD5.1 Е-AC3 , 320 Kbps, 48.0 KHz, 6 ch
Язык : Russian
Service kind : Complete Main
Default : Нет
Forced : Нет
Аудио #2
Идентификатор : 4
Формат : E-AC-3
Формат/Информация : Enhanced AC-3
Коммерческое название : Dolby Digital Plus
Идентификатор кодека : A_EAC3
Продолжительность : 2 ч. 48 м.
Вид битрейта : Постоянный
Битрейт : 320 Кбит/сек
Каналы : 6 каналов
Channel layout : L R C LFE Ls Rs
Частота : 48,0 КГц
Частота кадров : 31,250 кадров/сек (1536 SPF)
Метод сжатия : С потерями
Размер потока : 386 Мбайт (10%)
Заголовок : +18 Original@DD5.1 Е-AC3 , 320 Kbps, 48.0 KHz, 6 ch
Язык : Russian
Service kind : Complete Main
Default : Нет
Forced : Нет
Текст
Идентификатор : 2
Формат : UTF-8
Идентификатор кодека : S_TEXT/UTF8
Идентификатор кодека/Информация : UTF-8 Plain Text
Продолжительность : 2 ч. 42 м.
Битрейт : 71 бит/сек
Count of elements : 1716
Размер потока : 85,3 Кбайт (0%)
Заголовок : Original
Язык : Russian
Default : Да
Forced : Нет
Меню
00:00:00.000 : ru:Глава 01 / ru:Глава 01 / ru:Глава 01 / ru:Глава 01
--

Скриншоты

--
1Сезон
--

Как закачать отдельный файл

1. Открыть торрент
2. Снять галки с тех файлов торрента, которые мы не хотим закачивать. Оставляем только на нужных нам файлах (файле).
3. Нажать О.К.
В клиенте utorrent
Инструкция
1) Открыть торрент

2) Снять галки с тех файлов торрента, которые мы не хотим закачивать:
* либо вручную, снимая с каждого файла галку( скрин №1)
* либо, нажав кнопку "Снять метки (Select None)", сняв сразу со всех файлов(скрин №2)
№1

№2

Оставляем только на нужных нам файлах (файле).

3)Нажать О.К
-- -- ----Внимание!! ! 26.02. 2021. РАЗДАЧА ОБНОВЛЕНА. ДОБАВЛЕНА -7- СЕРИЯ . ФИНАЛ СЕЗОНА . ОБНОВИТЕ ТОРЕНТ ФАЙЛ. ПРИЯТНОГО ПРОСМОТРА . Поблагодарить:
ЯД: 410017546713876
--Релиз от: Nikolai.Baranov & PIRATIYA -- -- -- --Время раздачи : 24/7---

_________________

Легко быть оптимистом, когда судьба не валит с ног тяжелыми ударами, а лишь иногда легонько шлепает по заднице.
[Торрент-статистика]
[Профиль]  [ЛС] 

augur

Пол:

Стаж: 2 месяца 17 дней

Сообщений: 12

Репутация: 0 [+] [-]

Откуда: Красноярск

Пост 03-Мар-2021 14:10 (спустя 1 месяц 1 день)

[Цитировать] 

В ролях забыли добавить Веронику Мохиреву. ad
[Торрент-статистика]
[Профиль]  [ЛС] 
Показать сообщения:    
Ответить на тему

Текущее время: Сегодня 07:46

Часовой пояс: GMT + 4



Вы не можете начинать темы
Вы не можете отвечать на сообщения
Вы не можете редактировать свои сообщения
Вы не можете удалять свои сообщения
Вы не можете голосовать в опросах
Вы не можете прикреплять файлы к сообщениям
Вы не можете скачивать файлы