Лихач / Scorcher (Сезон 1 , Серия 1-20 из 20) (Андрей Коршунов, Максим Демченко) [2020, Детектив, приключения , WEB-DLRip - HEVC - 1080p]

Ответить на тему
 
Автор
Сообщение

Враг Нароода ®

Пол:

Стаж: 2 года 9 месяцев

Сообщений: 217

Репутация: 237 [+] [-]

Откуда: Красногорск

Пост 26-Авг-2020 15:43

[Цитировать] 

---- Лихач / Scorcher - (Сезон 1 , Серия 1-20 из 20) - Полный Комплект - --Год выпуска: 2020
Выпущено: Россия , Киностудия КИТ по заказу телеканала НТВ
Жанр: Детектив, приключения
Продолжительность: 00:49:00
Сезон:1
Серия:1-20
Количество серий в сезоне:20--Озвучка #1: Русский -- Релиз Без Рекламы -- Кинопоиск --Режиссеры:
Андрей Коршунов, Максим Демченко--В ролях: Никита Панфилов, Мария Сандлер, Денис Пьянов, Ольга Павлюкова, Артур Мкртчян, Иван Васильев, Кирилл Полухин, Ульяна Никулина, Игорь Головин, Игорь Качаев, Александра Камчатова, Дмитрий Быковский-Ромашов, Виталий Бисеров, Алексей Штукин, Яков Шамшин, Сергей Кошонин, Кирилл Балобан, Дмитрий Соловьёв (II), Глафира Козулина, Наталья Мызникова, Мария Минакова, Юлия Кудояр, Виталий Салий, Елена Лопаткина, Владимир Петров (VIII), Екатерина Зорина-- 37-летний Сергей Сотников – заместитель начальника уголовного розыска Сочи, в котором родился и прожил всю жизнь. Всему городу Сотников знаком под прозвищем «Лихач», которое он получил за свой суровый нрав.
Упрямый, справедливый, уверенный в себе Лихач смог за годы работы добиться главного – установить контроль над преступностью. Сотников давно бы мог возглавить уголовный розыск и даже стать начальником полиции, но кабинетные должности не для него. В курортном городе случаются и грабежи, и разбойные нападения, и драки, а иногда даже убийства. Но Лихач ни одно преступление не оставит безнаказан
-- --Качество : -WEB-DLRip - HEVC - 1080p.
Формат: MKV
Видео кодек: H265
Видео: 3149 Кбит/сек,1920х960(2.000),в 25.000 кадр/сек, HEVC (Main@L4@Main)--Аудио Кодек: AC3
Аудио #1: @DD5.1 AC3 , 384 Kbps, 48.0 KHz, 6 ch -Русский--

Доп. информация:

Звуковая дорожка сделана путем наложения чистого голоса озвучивателей на центральный канал оригинальной дорожки. Качество идентично звуковой дорожке.
--

MediaInfo

Общее
Уникальный идентификатор : 65994192700847764166693605208617225003 (0x31A604E97E3DCD2A4B393D9C29558B2B)
Полное имя : F:\Nikolai.Baranov & PIRATIYA\ЛИХАЧ - Scorcher\Scorcher_2020_S01_HEVC_Н265_DD5.1_N.B_HD_1080_Rus\Scorcher_2020_S01E01-E02_HEVC_DD5.1_N.B_HD_1080_Rus.mkv
Формат : Matroska
Версия формата : Version 4
Размер файла : 2,41 Гбайт
Продолжительность : 1 ч. 37 м.
Общий поток : 3 534 Кбит/сек
Название фильма : Scorcher 2020 S01E01-E02 @ Nikolai.Baranov & PIRATIYA
Дата кодирования : UTC 2020-08-25 18:51:24
Программа кодирования : mkvmerge v49.0.0 ('Sick Of Losing Soulmates') 64-bit
Библиотека кодирования : libebml v1.4.0 + libmatroska v1.6.1
Видео
Идентификатор : 1
Формат : HEVC
Формат/Информация : High Efficiency Video Coding
Профиль формата : Main@L4@Main
Идентификатор кодека : V_MPEGH/ISO/HEVC
Продолжительность : 1 ч. 37 м.
Битрейт : 3 149 Кбит/сек
Ширина : 1 920 пикселей
Высота : 960 пикселей
Соотношение сторон : 2,000
Режим частоты кадров : Постоянный
Частота кадров : 25,000 кадров/сек
Цветовое пространство : YUV
Субдискретизация насыщенности : 4:2:0
Битовая глубина : 8 бит
Бит/(Пиксели*Кадры) : 0.068
Размер потока : 2,15 Гбайт (89%)
Заголовок : Scorcher_2020_S01E01-E02_HEVC_DD5.1_N.B_HD_1080_Rus
Язык : Russian
Default : Нет
Forced : Нет
Цветовой диапазон : Full
Основные цвета : BT.709
Характеристики трансфера : BT.709
Коэффициенты матрицы : BT.709
Аудио
Идентификатор : 2
Формат : AC-3
Формат/Информация : Audio Coding 3
Коммерческое название : Dolby Digital
Идентификатор кодека : A_AC3
Продолжительность : 1 ч. 37 м.
Вид битрейта : Постоянный
Битрейт : 384 Кбит/сек
Каналы : 6 каналов
Channel layout : L R C LFE Ls Rs
Частота : 48,0 КГц
Частота кадров : 31,250 кадров/сек (1536 SPF)
Метод сжатия : С потерями
Размер потока : 269 Мбайт (11%)
Заголовок : Russian @DD5.1 AC3, 384 Kbps, 48.0 KHz, 6 ch
Язык : Russian
Service kind : Complete Main
Default : Нет
Forced : Нет
Меню
00:00:00.000 : ru:Глава 01 / ru:Глава 01
--

Скриншоты

-- --

Как закачать отдельный файл

1. Открыть торрент
2. Снять галки с тех файлов торрента, которые мы не хотим закачивать. Оставляем только на нужных нам файлах (файле).
3. Нажать О.К.
В клиенте utorrent
Инструкция
1) Открыть торрент

2) Снять галки с тех файлов торрента, которые мы не хотим закачивать:
* либо вручную, снимая с каждого файла галку( скрин №1)
* либо, нажав кнопку "Снять метки (Select None)", сняв сразу со всех файлов(скрин №2)
№1

№2

Оставляем только на нужных нам файлах (файле).

3)Нажать О.К
-- -- --Внимание!!! 05.09. 2020. РАЗДАЧА ОБНОВЛЕНА. ДОБАВЛЕНА - 19 - 20- СЕРИЯ . ФИНАЛ СЕЗОНА . ОБНОВИТЕ ТОРЕНТ ФАЙЛ. ПРИЯТНОГО ПРОСМОТРА . Поблагодарить:
ЯД: 410017546713876
--Релиз от: Nikolai.Baranov & PIRATIYA -- -- -- --Время раздачи : 24/7---

_________________

Легко быть оптимистом, когда судьба не валит с ног тяжелыми ударами, а лишь иногда легонько шлепает по заднице.
[Торрент-статистика]
[Профиль]  [ЛС] 
Показать сообщения:    
Ответить на тему

Текущее время: Сегодня 16:50

Часовой пояс: GMT + 4



Вы не можете начинать темы
Вы не можете отвечать на сообщения
Вы не можете редактировать свои сообщения
Вы не можете удалять свои сообщения
Вы не можете голосовать в опросах
Вы не можете прикреплять файлы к сообщениям
Вы не можете скачивать файлы