#СидЯдома / # SidYadoma (Сезон 1 , Серия 1-8 из 8) ( Ольга Френкель) [2020, Комедия,WEB-DLRip - HEVC 10bit 1080p]

Ответить на тему
 
Автор
Сообщение

Враг Нароода ®

Пол:

Стаж: 2 года 9 месяцев

Сообщений: 216

Репутация: 237 [+] [-]

Откуда: Красногорск

Пост 16-Июн-2020 16:00

[Цитировать] 

---- #СидЯдома / # SidYadoma - (Сезон 1 , Серия 1-8 из 8) - Полный Комплект -- --Год выпуска: 2020
Выпущено: Россия , PREMIER Studios
Жанр: Комедия
Продолжительность: 00:20:00
Сезон:1
Серия:1-8
Количество серий в сезоне:8--Озвучка #1: Русский --Релиз Без Рекламы - Ненормативная лексика -- --Режиссеры:
Ольга Френкель--В ролях: Борис Дергачёв, Анна Котова, Олеся Железняк, Анна Михалкова, Юлия Александрова, Александр Робак, Гоша Куценко, Михаил Кремер, Прохор Сумченко, Кирилл Кяро-- В то время как весь мир поет песни с балконов и устраивает вечеринки по видеосвязи, Геннадий Борисович, владелец сети хозяйственных магазинов в Подольске, пытается спасти свой бизнес. А его жена не может (или не хочет?) уезжать с Бали домой.
Бывший полковник ФСО Серёга Дергач окопался на даче с запасом алкоголя и поставляет противоречивые данные от своих сомнительных информаторов, чем наводит страх на коллег.
А секретарша Юлечка собирается на возможно последний в ее жизни маникюр. Она очень расстроена тем, что ее тайный ухажер самоизолировался с семьей. К видеозвонку с коллегами он подключается из шкафа – единственного места в доме, где можно укрыться от жены и детей.
-- --Качество : -WEB-DLRip - HEVC - 10bit - 1080p.
Формат: MKV
Видео кодек: H265
Видео: 3010Кбит/сек,1904х960(1.983),в 25.000 кадр/сек, HEVC (Main10@L5.2@Main)--Аудио Кодек: AC3
Аудио #1: @DD5.1 AC3 , 384 Kbps, 48.0 KHz, 6 ch -Русский--

Доп. информация:

Звуковая дорожка сделана путем наложения чистого голоса озвучивателей на центральный канал оригинальной дорожки. Качество идентично звуковой дорожке.
--

MediaInfo

Общее
Уникальный идентификатор : 171269195899655753645172021964352193508 (0x80D93F4E9F3DBDF8A0D9673BA95B03E4)
Полное имя : E:\Baranov\#СидЯдома - # SidYadoma\# SidYadoma_2020_S01_HEVC- 10Bit_Н265_DD5.1_N.B_HD_1080_Rus\# SidYadoma_2020_S01E01_HEVC_DD5.1_N.B_HD_1080_Rus.mkv
Формат : Matroska
Версия формата : Version 4
Размер файла : 489 Мбайт
Продолжительность : 20 м. 8 с.
Общий поток : 3 396 Кбит/сек
Название фильма : # SidYadoma 2020 S01E01 @ Nikolai.Baranov & PIRATIYA
Дата кодирования : UTC 2020-06-16 08:33:53
Программа кодирования : mkvmerge v47.0.0 ('Black Flag') 64-bit
Библиотека кодирования : libebml v1.3.10 + libmatroska v1.5.2
Видео
Идентификатор : 1
Формат : HEVC
Формат/Информация : High Efficiency Video Coding
Профиль формата : Main 10@L5.2@Main
Идентификатор кодека : V_MPEGH/ISO/HEVC
Продолжительность : 20 м. 8 с.
Битрейт : 3 010 Кбит/сек
Ширина : 1 904 пикселя
Высота : 960 пикселей
Соотношение сторон : 1,983
Режим частоты кадров : Постоянный
Частота кадров : 25,000 кадров/сек
Цветовое пространство : YUV
Субдискретизация насыщенности : 4:2:0
Битовая глубина : 10 бит
Бит/(Пиксели*Кадры) : 0.066
Размер потока : 433 Мбайт (89%)
Заголовок : # SidYadoma_2020_S01E01_HEVC_DD5.1_N.B_HD_1080_Rus
Язык : Russian
Default : Да
Forced : Нет
Цветовой диапазон : Full
Основные цвета : BT.709
Характеристики трансфера : BT.709
Коэффициенты матрицы : BT.709
Аудио
Идентификатор : 2
Формат : AC-3
Формат/Информация : Audio Coding 3
Коммерческое название : Dolby Digital
Идентификатор кодека : A_AC3
Продолжительность : 20 м. 8 с.
Вид битрейта : Постоянный
Битрейт : 384 Кбит/сек
Каналы : 6 каналов
Channel layout : L R C LFE Ls Rs
Частота : 48,0 КГц
Частота кадров : 31,250 кадров/сек (1536 SPF)
Метод сжатия : С потерями
Размер потока : 55,3 Мбайт (11%)
Заголовок : Original@DD5.1 AC3 , 384 Kbps, 48.0 KHz, 6 ch
Язык : Russian
Service kind : Complete Main
Default : Да
Forced : Нет
Меню
00:00:00.000 : ru:Глава 01 / ru:Глава 01
--

Скриншоты

--
Внимание! Раздача пополняется по мере выхода новых серий!--

Как закачать отдельный файл

1. Открыть торрент
2. Снять галки с тех файлов торрента, которые мы не хотим закачивать. Оставляем только на нужных нам файлах (файле).
3. Нажать О.К.
В клиенте utorrent
Инструкция
1) Открыть торрент

2) Снять галки с тех файлов торрента, которые мы не хотим закачивать:
* либо вручную, снимая с каждого файла галку( скрин №1)
* либо, нажав кнопку "Снять метки (Select None)", сняв сразу со всех файлов(скрин №2)
№1

№2

Оставляем только на нужных нам файлах (файле).

3)Нажать О.К
-- -- --Релиз от: Nikolai.Baranov & PIRATIYA . Поблагодарить:
ЯД: 410017546713876
-- -- -- --Время раздачи : 24/7--

_________________

Легко быть оптимистом, когда судьба не валит с ног тяжелыми ударами, а лишь иногда легонько шлепает по заднице.
[Торрент-статистика]
[Профиль]  [ЛС] 
Показать сообщения:    
Ответить на тему

Текущее время: Сегодня 21:46

Часовой пояс: GMT + 4



Вы не можете начинать темы
Вы не можете отвечать на сообщения
Вы не можете редактировать свои сообщения
Вы не можете удалять свои сообщения
Вы не можете голосовать в опросах
Вы не можете прикреплять файлы к сообщениям
Вы не можете скачивать файлы