Невский. Чужой среди чужих / Сезон: 3 / Серии: 1-20 из 20 (Михаил Вассербаум) [2019, криминал, драма, детектив, WEBRip 1080p]

Ответить на тему
 
Автор
Сообщение

Kon912 ®

Стаж: 5 месяцев 6 дней

Сообщений: 10

Репутация: 3 [+] [-]

Пост 13-Май-2020 09:27

[Цитировать] 

Невский. Чужой среди чужих
Год выпуска: 2019
Производство: Триикс медиа
Жанр: криминал, драма, детектив
Продолжительность: ~00:48:00 серия
Субтитры: нет-Режиссёр:
Михаил Вассербаум
-В ролях:
Антон Васильев , Дмитрий Паламарчук, Андрей Гульнев, Мария Капустинская, Сергей Кошонин, Александр Саюталин, Юрий Архангельский, Роман Притула, Антон Сычёв, Алексей Штукин, Евгения Глотова, Пётр Харченко, Елена Шаманова, Валентина Лебедева, Анастасия Забирова, Руслан Бальбуциев, Анна Дулова, Татьяна Ермилова , Илья Катунцев, Виталий Гудков, Роман Воронцов, Дмитрий Глухов, Ринат Муталлапов
-Описание:
Павел Семёнов, оправившись после тяжелого ранения, не хочет возвращаться в УМВД, начальником которого стал Арсеньев. Павел принимает предложение своего друга Алексея Фомина возглавить его службу безопасности, хотя его и тяготит перспектива превратиться из полицейского в бандита. Тем временем вышедшая из колонии Юля Семёнова пытается адаптироваться к жизни на свободе, но все время сталкивается с предубеждениями и злобой. Между тем, в Северной столице набирает обороты конфликт между Фомой и Арсеньевым…-

Реклама: Нет.
Кинопоиск
Sample
Качество: WEBRip 1080p - Nikolspup
Формат: MKV
Видео кодек: H.264
Аудио кодек: AC3
Видео: MPEG4 AVC Video, H264, 16:9, 1920x1080, 25 fps, ~6000 kbps, 0.116 bit/pixel
Аудио: AC3 Dolby Digital, 48.0 kHz, 2/0 (L,R) ch, 192 kbps

MI

General
Unique ID : 235002783414088405865066941806018380175 (0xB0CBE3C7418423CF871E4FB5DC5D418F)
Complete name : D:\Nevskiy-3.2018.WEB-DL.(1080p).Nikolspup\Nevskiy-3.(01.seriya).2018.WEB-DL.(1080p).Nikolspup.mkv
Format : Matroska
Format version : Version 4 / Version 2
File size : 2.07 GiB
Duration : 48 min 5 s
Overall bit rate mode : Constant
Overall bit rate : 6 156 kb/s
Encoded date : UTC 2019-02-11 19:29:03
Writing application : mkvmerge v7.8.0 ('River Man') 32bit built on Mar 27 2015 16:18:02
Writing library : libebml v1.3.1 + libmatroska v1.4.2
Video
ID : 1
Format : AVC
Format/Info : Advanced Video Codec
Format profile : High@L4.1
Format settings : 2 Ref Frames
Format settings, CABAC : No
Format settings, ReFrames : 2 frames
Codec ID : V_MPEG4/ISO/AVC
Duration : 48 min 5 s
Bit rate mode : Constant
Bit rate : 6 000 kb/s
Width : 1 920 pixels
Height : 1 080 pixels
Display aspect ratio : 16:9
Frame rate mode : Constant
Frame rate : 25.000 FPS
Standard : PAL
Color space : YUV
Chroma subsampling : 4:2:0
Bit depth : 8 bits
Scan type : Progressive
Bits/(Pixel*Frame) : 0.116
Stream size : 2.00 GiB (97%)
Default : Yes
Forced : No
Color range : Limited
Color primaries : BT.709
Transfer characteristics : BT.709
Matrix coefficients : BT.709
Audio
ID : 2
Format : AC-3
Format/Info : Audio Coding 3
Codec ID : A_AC3
Duration : 48 min 5 s
Bit rate mode : Constant
Bit rate : 192 kb/s
Channel(s) : 2 channels
Channel positions : Front: L R
Sampling rate : 48.0 kHz
Frame rate : 31.250 FPS (1536 SPF)
Bit depth : 16 bits
Compression mode : Lossy
Stream size : 66.1 MiB (3%)
Language : Russian
Service kind : Complete Main
Default : Yes
Forced : No

Скриншоты


[Торрент-статистика]
[Профиль]  [ЛС] 
Показать сообщения:    
Ответить на тему

Текущее время: Сегодня 20:02

Часовой пояс: GMT + 4



Вы не можете начинать темы
Вы не можете отвечать на сообщения
Вы не можете редактировать свои сообщения
Вы не можете удалять свои сообщения
Вы не можете голосовать в опросах
Вы не можете прикреплять файлы к сообщениям
Вы не можете скачивать файлы