Рикошет / Ricochet (Серия 1-16 из 16)(Денис Карышев, Вячеслав Кириллов) [2019,Драма, криминальный фильм,WEB-DLRip - HEVC 1080p] ][DD5.1]

Ответить на тему
 
Автор
Сообщение

Враг Нароода ®

Пол:

Стаж: 2 года 9 месяцев

Сообщений: 217

Репутация: 237 [+] [-]

Откуда: Красногорск

Пост 07-Апр-2020 13:35

[Цитировать] 

---- Рикошет / Ricochet (Сезон 1, Серия 1-16 из 16) - Полный Комплект -- --Год выпуска: 2019
Выпущено: Россия , SMART Production совместно с ГПМ КИТ
Жанр:Драма, криминальный фильм
Продолжительность: 00:50:00
Сезон:1
Серия:1-16
Количество серий в сезоне:16
Озвучка : -Русский --Релиз Без Рекламы -- --Режиссеры:
Денис Карышев, Вячеслав Кириллов --В ролях: Александр Устюгов, Екатерина Волкова (I), Сергей Шнырёв, Пётр Рыков, Виктория Заболотная, Константин Адаев, Данила Якушев, Сесиль Плеже, Ингрид Олеринская, Денис Бургазлиев, Елена Муравьёва, Павел Ворожцов, Анна Бегунова, Роман Евдокимов, Анна Данькова, Андрей Чуманов, Линда Лапиньш, Григорий Зельцер, Никита Люшненко, Людмила Волкова (III), Игорь Климов, Сергей Чудаков, Анастасия Акатова, Юрий Тарасов, Егор Тимцуник, Арсений Робак, Ася Калинина, Евгений Харланов, Дмитрий Кривочуров, Александр Красовский, Виктор Пипа, Наталья Грачёва, Михаил Филиппов (V)
-- 20 лет назад Дениса официально похоронили. «Воскреснуть» главного героя заставляет смерть родителей. Чтобы достойно их похоронить, «последний герой» лихих 90-х возвращается в родной Анинск с новым именем, с новым лицом, с новыми документами. Он сразу оказывается в центре криминальных событий городка, погрязшего в преступности. Денис понимает, что ошибок прошлого уже не исправить, но в его силах попытаться изменить кое-что в настоящем. Он остается, чтобы защитить сестру Нику от угрожающей ей опасности. А заодно и разобраться с разгулявшейся преступностью.…-- --Качество : WEB-DLRip - HEVC 10bit - 1080p
Формат: MKV
Видео кодек: H265
Видео: 3049Кбит/сек,1920х824(2.35.1),в 25.000кадр/сек, HEVC (Main10@L5.2@Main)--Аудио Кодек:AC3
Аудио #1:AC3 , 384 Kbps, 48.0 KHz, 6 ch-Русский--

MediaInfo

Общее
Уникальный идентификатор : 278515389670551855051988644415340405859 (0xD1881CE69DAC47BB84A13CCE69D5E463)
Полное имя : F:\Nikolai.Baranov & PIRATIYA\Рикошет - Ricochet\Ricochet_2019_S01_HEVC- 10Bit_Н265_DD5.1_N.B_HD_1080_Rus\Ricochet_S01E01-E02_HEVC_DD5.1_N.B_HD_1080_Rus.mkv
Формат : Matroska
Версия формата : Version 4
Размер файла : 2,37 Гбайт
Продолжительность : 1 ч. 38 м.
Общий поток : 3 435 Кбит/сек
Название фильма : Ricochet 2019 S01E01-E02 @ Nikolai.Baranov & PIRATIYA
Дата кодирования : UTC 2020-04-07 06:50:31
Программа кодирования : mkvmerge v45.0.0 ('Heaven in Pennies') 64-bit
Библиотека кодирования : libebml v1.3.10 + libmatroska v1.5.2
Видео
Идентификатор : 1
Формат : HEVC
Формат/Информация : High Efficiency Video Coding
Профиль формата : Main 10@L5.2@Main
Идентификатор кодека : V_MPEGH/ISO/HEVC
Продолжительность : 1 ч. 38 м.
Битрейт : 3 049 Кбит/сек
Ширина : 1 920 пикселей
Высота : 824 пикселя
Соотношение сторон : 2,35:1
Режим частоты кадров : Постоянный
Частота кадров : 25,000 кадров/сек
Цветовое пространство : YUV
Субдискретизация насыщенности : 4:2:0
Битовая глубина : 10 бит
Бит/(Пиксели*Кадры) : 0.077
Размер потока : 2,10 Гбайт (89%)
Заголовок : Ricochet_S01E01-E02_HEVC_DD5.1_N.B_HD_1080_Rus
Язык : Russian
Default : Нет
Forced : Нет
Цветовой диапазон : Full
Основные цвета : BT.709
Характеристики трансфера : BT.709
Коэффициенты матрицы : BT.709
Аудио
Идентификатор : 2
Формат : AC-3
Формат/Информация : Audio Coding 3
Коммерческое название : Dolby Digital
Идентификатор кодека : A_AC3
Продолжительность : 1 ч. 38 м.
Вид битрейта : Постоянный
Битрейт : 384 Кбит/сек
Каналы : 6 каналов
Channel layout : L R C LFE Ls Rs
Частота : 48,0 КГц
Частота кадров : 31,250 кадров/сек (1536 SPF)
Метод сжатия : С потерями
Размер потока : 271 Мбайт (11%)
Заголовок : Russian @DD5.1 AC3, 384 Kbps, 48.0 KHz, 6 ch
Язык : Russian
Service kind : Complete Main
Default : Да
Forced : Нет
Меню
00:00:00.000 : ru:Глава 01 / ru:Глава 01
--

Скриншоты

-- --

Как закачать отдельный файл

1. Открыть торрент
2. Снять галки с тех файлов торрента, которые мы не хотим закачивать. Оставляем только на нужных нам файлах (файле).
3. Нажать О.К.
В клиенте utorrent
Инструкция
1) Открыть торрент

2) Снять галки с тех файлов торрента, которые мы не хотим закачивать:
* либо вручную, снимая с каждого файла галку( скрин №1)
* либо, нажав кнопку "Снять метки (Select None)", сняв сразу со всех файлов(скрин №2)
№1

№2

Оставляем только на нужных нам файлах (файле).

3)Нажать О.К
-- -- --Внимание!!! 28.04 2020. РАЗДАЧА ОБНОВЛЕНА. ЗАМЕНА HDTVRip НА WEB-DLRip Е09-Е16 ОБНОВИТЕ ТОРЕНТ ФАЙЛ. ПРИЯТНОГО ПРОСМОТРА . Поблагодарить:
ЯД: 410017546713876
--Релиз от: Nikolai.Baranov & PIRATIYA -- -- -- --Время раздачи : 24/7---

_________________

Легко быть оптимистом, когда судьба не валит с ног тяжелыми ударами, а лишь иногда легонько шлепает по заднице.
[Торрент-статистика]
[Профиль]  [ЛС] 
Показать сообщения:    
Ответить на тему

Текущее время: Сегодня 18:02

Часовой пояс: GMT + 4



Вы не можете начинать темы
Вы не можете отвечать на сообщения
Вы не можете редактировать свои сообщения
Вы не можете удалять свои сообщения
Вы не можете голосовать в опросах
Вы не можете прикреплять файлы к сообщениям
Вы не можете скачивать файлы