Суфлёр / Серии: 1-4 из 4 (Николай Барышников) [2017, детектив, экранизация, SATRip-AVC]

Ответить на тему
 
Автор
Сообщение

aleksan55 ®

Стаж: 6 месяцев 22 дня

Сообщений: 11

Репутация: 0 [+] [-]

Пост 29-Апр-2017 22:07

[Цитировать] 

Суфлёр --
Год выпуска: 2017
Производство:Россия,Марс Медиа Энтертейнмент, Кинокомпания Парк Синема
Жанр: детектив, экранизация
Продолжительность: 00:43:00
Субтитры: нет
--
Режиссёр: Николай Барышников
--
В ролях:Елена Великанова, Дмитрий Бедерин, Любовь Германова, Валерий Сторожик, Максим Щёголев, Сергей Подольный, Евгений Данчевский, Михаил Хмуров

--
Описание:Реставратора Сашу Корзухину приглашают на закрытый вернисаж, где продаётся пейзаж Сислея. Некто Гаев хочет о чём-то поговорить с ней, но не успевает – садится в машину и погибает во время взрыва. А картина, которую Саше предстоит реставрировать, кажется ей странной: во-первых, её уже кто-то начинал реставрировать, во-вторых, на ней изображено то, что не могло быть изображено. Пока капитан Греков расследует дело об убийстве, Саша пытается разгадать тайну картины. Но, кажется, ценой разгадки будет её собственная жизнь...

--

--
Качество: SATRip-AVC
Формат: MKV
Видео кодек: H.264
Аудио кодек: AAC
Видео: MPEG4 Video (H264), 720x400, 25fps,1400 Kbps,bit/pixel 0.194
Аудио: AC3 48000Hz, stereo, 192kbps,2 ch
--

MI

Общее
Уникальный идентификатор : 222928293499378899872848420164430213262 (0xA7B66D768C796036A388924723A4308E)
Полное имя : F:\Суфлер\01 серия_Суфлер_rip by_Aleksan55.mkv
Формат : Matroska
Версия формата : Version 2
Размер файла : 499 Мбайт
Продолжительность : 43 м. 48 с.
Общий поток : 1594 Кбит/сек
Дата кодирования : UTC 2017-04-29 11:10:15
Программа кодирования : mkvmerge v7.8.0 ('River Man') 32bit built on Apr 3 2015 12:11:22
Библиотека кодирования : libebml v1.3.1 + libmatroska v1.4.2
Видео
Идентификатор : 1
Формат : AVC
Формат/Информация : Advanced Video Codec
Профиль формата : High@L4.1
Параметр CABAC формата : Да
Параметр ReFrames формата : 14 кадров
Идентификатор кодека : V_MPEG4/ISO/AVC
Продолжительность : 43 м. 48 с.
Битрейт : 1400 Кбит/сек
Ширина : 720 пикселей
Высота : 400 пикселей
Соотношение сторон : 16:9
Режим частоты кадров : Постоянный
Частота кадров : 25,000 кадров/сек
Цветовое пространство : YUV
Субдискретизация насыщенности : 4:2:0
Битовая глубина : 8 бит
Тип развёртки : Прогрессивная
Бит/(Пиксели*Кадры) : 0.194
Размер потока : 429 Мбайт (86%)
Библиотека кодирования : x264 core 148 r2638 7599210
Настройки программы : cabac=1 / ref=14 / deblock=1:-2:-2 / analyse=0x3:0x133 / me=umh / subme=9 / psy=1 / psy_rd=1.00:0.15 / mixed_ref=0 / me_range=32 / chroma_me=1 / trellis=2 / 8x8dct=1 / cqm=0 / deadzone=21,11 / fast_pskip=0 / chroma_qp_offset=-3 / threads=3 / lookahead_threads=3 / sliced_threads=0 / nr=0 / decimate=0 / interlaced=0 / bluray_compat=0 / constrained_intra=0 / bframes=14 / b_pyramid=2 / b_adapt=1 / b_bias=0 / direct=3 / weightb=1 / open_gop=0 / weightp=2 / keyint=250 / keyint_min=25 / scenecut=40 / intra_refresh=0 / rc_lookahead=40 / rc=2pass / mbtree=1 / bitrate=1400 / ratetol=1.0 / qcomp=0.80 / qpmin=0 / qpmax=40 / qpstep=4 / cplxblur=20.0 / qblur=0.5 / ip_ratio=1.10 / aq=1:1.10
Default : Да
Forced : Нет
Цветовой диапазон : Limited
Основные цвета : BT.601 PAL
Характеристики трансфера : BT.470 System B, BT.470 System G
Коэффициенты матрицы : BT.601
Аудио
Идентификатор : 2
Формат : AC-3
Формат/Информация : Audio Coding 3
Расширение режима : CM (complete main)
Параметр Endianness формата : Big
Идентификатор кодека : A_AC3
Продолжительность : 43 м. 48 с.
Вид битрейта : Постоянный
Битрейт : 192 Кбит/сек
Каналы : 2 канала
Расположение каналов : Front: L R
Частота : 48,0 КГц
Частота кадров : 31,250 кадров/сек (1536 spf)
Битовая глубина : 16 бит
Метод сжатия : С потерями
Размер потока : 60,2 Мбайт (12%)
Default : Да
Forced : Нет

Скриншоты


_________________

[Торрент-статистика]
[Профиль]  [ЛС] 
Показать сообщения:    
Ответить на тему

Текущее время: Сегодня 22:07

Часовой пояс: GMT + 4



Вы не можете начинать темы
Вы не можете отвечать на сообщения
Вы не можете редактировать свои сообщения
Вы не можете удалять свои сообщения
Вы не можете голосовать в опросах
Вы не можете прикреплять файлы к сообщениям
Вы не можете скачивать файлы