Легавый / Сезон: 2 / Серия 1-32 из 32 (Олег Фомин) [2014, Детектив, криминал, DVB]

Ответить на тему
 
Автор
Сообщение

awk05 ®

Пол:

Стаж: 4 года 5 месяцев

Сообщений: 1352

Репутация: 275 [+] [-]

Откуда: Западная Украина Ривне

Пост 19-Ноя-2014 08:34

[Цитировать] 

--Легавый-- Год выпуска:2014
Страна: Россия, кинокомпания "Star Media"
Жанр: криминал, детектив
Сезон/Серия: Сезон:2 / Серия 1-32 из 32
Продолжительность: 32 ~ 00:45:00
Субтитры: отсутствуют--Режиссер: Олег Фомин--В ролях: Николай Козак, Эдуард Флёров, Михаил Горевой, Михаил Павлик, Андрей Гусев, Елена Полякова, Елена Мольченко, Екатерина Олькина, Дмитрий Горевой, Павел Ясенок, Максим Щёголев, Олег Данилевский, Олег Флеер, Евгений Смирнов-Иваницкий, Игорь Воробьёв, Евгений Березовский, Олег Фомин, Артурс Пуполс-Кочаневский, Владислав Резник, Владимир Бадов, Сергей Макаров, Артур Бичахчян, Александр Шишкин (IV), Александр Негреба, Андрей Копытов, Андрей Костюк, Александр Мынто, Аристарх Венес, Михаил Васьков, Сергей Шарифуллин, Дмитрий Дёмин, Сергей Беляев, Юрий Осипов, Полина Борунова, Михаил Асанкин, Мария Бородина (II)--Описание Со времени событий первого сезона прошло 3 года. События второго сезона происходят в период с лета 1952 по весну 1953. В служебной деятельности Козырева происходят перемены. При Петровском ОВД создаётся отдел по борьбе с бандитизмом и Козырева назначают его начальником. На место Чалого приходит другой «смотрящий» по кличке Гангрена, полная противоположность Чалому: жадный, безжалостный и жестокий.
Неожиданно из лагеря освобождается Павливкер, которого оправдывают, восстанавливают в МГБ, повышают в звании, и назначают на ответственную должность в областное управление МГБ. В какой-то момент Козырев всё-таки попадает в сети, расставленные хитроумным Павливкером, и оказывается в тюрьме. Чалый «подставляет» Гангрену и смещает с должности «смотрящего». С его помощью Козыреву, Баженину и их другу, оперативнику МУРа Грунину удаётся раскусить дьявольскую игру Павливкера и «сломать» её..--Качество видео: DVB
Формат видео: MPEG-TS
Видео кодек: AVC (High@L4.1)
Аудио кодек: MP2
Видео: AVC, 720x576@1024х576 (16:9), 25.000 fps, 2 537 Kbps (0.245 bit/pixel)
Аудио: MP2, 48.0 KHz, 2 ch, 192 Kbps, CBR , 16 bits [Русский] -- --

Кадры из фильма

Тех. данные (MI)

Код:
Общее
Идентификатор                            : 1 (0x1)
Полное имя                               : G:\Сериалы\Legavyj.2.2014.DVB.Files-x\01.Legavyj.2.2014.DVB.Files-x.ts
Формат                                   : MPEG-TS
Размер файла                             : 935 Мбайт
Продолжительность                        : 45 м.
Режим общего битрейта                    : Переменный
Общий поток                              : 2873 Кбит/сек
Видео
Идентификатор                            : 69 (0x45)
Идентификатор меню                       : 1 (0x1)
Формат                                   : AVC
Формат/Информация                        : Advanced Video Codec
Профиль формата                          : High@L4.1
Параметр CABAC формата                   : Да
Параметр ReFrames формата                : 3 кадра
Идентификатор кодека                     : 27
Продолжительность                        : 45 м.
Битрейт                                  : 2537 Кбит/сек
Ширина                                   : 720 пикселей
Высота                                   : 576 пикселей
Соотношение сторон                       : 16:9
Частота кадров                           : 25,000 кадров/сек
Стандарт вещания                         : PAL
Цветовое пространство                    : YUV
Субдискретизация насыщенности            : 4:2:0
Битовая глубина                          : 8 бит
Тип развёртки                            : Прогрессивная
Бит/(Пиксели*Кадры)                      : 0.245
Размер потока                            : 826 Мбайт (88%)
Аудио
Идентификатор                            : 68 (0x44)
Идентификатор меню                       : 1 (0x1)
Формат                                   : MPEG Audio
Версия формата                           : Version 1
Профиль формата                          : Layer 2
Идентификатор кодека                     : 3
Продолжительность                        : 45 м.
Вид битрейта                             : Постоянный
Битрейт                                  : 192 Кбит/сек
Каналы                                   : 2 канала
Частота                                  : 48,0 КГц
Метод сжатия                             : С потерями
Размер потока                            : 62,5 Мбайт (7%)

Внимание! Раздача ведётся путём добавления новых серий

Внимание! Раздача ведётся путём добавления новых серий; при каждом добавлении создаётся новый торрент.
Чтобы начать докачку новой серии, пользователям необходимо сделать следующее:
1. Остановить скачивание;
2. Удалить старый торрент у себя из клиента (старые серии удалять не надо);
3. Скачать новый торрент и запустить его у себя в клиенте вместо старого, при этом указать клиенту путь в старую папку куда и должно происходить скачивание новых серий. Ваш клиент при этом должен произвести хеширование (проверку) старой папки и будет докачивать только те серии, которых у вас ещё нет. Старые серии при этом не удаляются, а продолжают раздаваться! Eсли вы уже удалили старые серии, то предотвратить повторную закачку старых серий можно, отжав галочку в соответствующих местах при запуске нового торрента.

_________________
[Торрент-статистика]
[Профиль]  [ЛС] 
Показать сообщения:    
Ответить на тему

Текущее время: Сегодня 06:25

Часовой пояс: GMT + 4



Вы не можете начинать темы
Вы не можете отвечать на сообщения
Вы не можете редактировать свои сообщения
Вы не можете удалять свои сообщения
Вы не можете голосовать в опросах
Вы не можете прикреплять файлы к сообщениям
Вы не можете скачивать файлы