Светофор / Сезон 7 / Серии 1-14 из 20 (Роман Фокин) [2014-2015, Комедийный сериал, WEB-DLRip 720]

Ответить на тему
 
Автор
Сообщение

awk05 ®

Пол:

Стаж: 4 года 5 месяцев

Сообщений: 1352

Репутация: 275 [+] [-]

Откуда: Западная Украина Ривне

Пост 21-Окт-2014 10:57

[Цитировать] 

--Светофор«Мужчины бывают трёх типов. Про этих трёх типов мы вам и расскажем»-- Год выпуска: 2014-2015
Производство: Россия, Yellow, Black&White
Жанр: Комедийный сериал
Сезон/Серия: Сезон 7 серия 1-14 из 20
Продолжительность: 20 х ~ 00:24:00
Субтитры: отсутствуют--Режиссёр: Роман Фокин--В ролях: Дмитрий Миллер, Джемал Тетруашвили, Александр Макогон, Ольга Медынич, Ирина Низина, Евгения Каверау, Антонина Комиссарова--Описание: «Светофор» — история о трех друзьях детства. Им слегка за 30. Они мужчины в самом расцвете сил. Один женат, другой занят, третий свободен, как ветер. Герои абсолютно не похожи, но их объединяют дружба и разная, но все же искренняя любовь к женщинам.
«Светофор» — это первая правдивая комедия о мужчинах, в которой (как и в реальной жизни) всегда побеждают девушки. Можно идти на какие угодно уловки, выдумывать самые невероятные истории, стараться найти время для себя любимых и прожить, наконец, хотя бы минуту без женщин. И все это только ради того, чтобы в следующую секунду понять — это была самая бесполезная минута в жизни.
«Светофор» — это история, частью которой с легкостью может стать любой зритель. Каким цветом раскрашена твоя жизнь – зеленым, желтым или красным? Влипал ли ты в такие же истории?--Качество видео: WEB-DLRip 720
Формат видео: MKV
Видео кодек: AVC (High@L3.1)
Аудио кодек: AC-3
Видео: AVC, 1280x720 (16:9), 25.000 fps, 2 500 Kbps (0.109 bit/pixel)
Аудио: AC-3, 48.0 KHz, 2 ch, 256 Kbps, CBR, 16 bits [Русский] -- --

Знаете ли Вы, что...

  • На роль Даши (дочери Севы и Тамары) пробовались 20 девочек.
  • В нескольких сериях можно было услышать, как по телевизору идёт отрывок из ситкома «Игрушки», а именно песня из заставки этого сериала.
  • Исполнитель роли Севы (Александр Макогон) специально для съёмок сериала впервые прыгнул с парашютом, в тандеме с инструктором.

Описание серий

01 серия.
Олесе надоело жить по расписанию. После скандала с женой Паша приходит к другу Эдику, нарушив его устоявшийся порядок жизни.
02 серия.
Сева находит дневник беременности Тамары и начинает «предсказывать» её желания. Ссора Паши и Олеси заводит их отношения в тупик.
03 серия.
Пашу шокирует новость о том, что Олеся, не спросив его, вышла на работу. Эдик назначает свидание заместителю директора школы, в которой учится Ваня. Сева пытается найти клиента, чтобы сбыть партию детских унитазов.
04 серия.
После скандала с Олесей Паша попадает в полицию. Желая постоянно находиться рядом с беременной женой, Сева устанавливает видеосвязь с магазином, чтобы вести дела из дома. Эдик уговаривает друзей поехать в Таиланд.
05 серия.
На отдыхе в Таиланде друзья излишне беспокоятся о своих близких: Сева названивает каждые пять минут Тамаре, Калач постоянно думает об Олесе, Эдик опекает сына.
06 серия.
Паша пускается во все тяжкие и начинает флиртовать с девушками. Эдик и Сева беспокоятся за друга и пытаются не допустить, чтобы Паша изменил Олесе. На помощь приходят тайские девушки. Эдик узнает, что Ваня не умеет плавать и пытается научить сына.
07 серия.
Эдик ради симпатичной незнакомки становится буддистом. А Сева, Паша и Ваня окажутся на необитаемом острове и это будет покруче, чем в шоу «Последний герой», ведь все по-настоящему.
08 серия.
Эдик не хочет расставаться со своей новой спутницей, считая, что она его судьба. Паше предлагают провести корпоратив в честь Дня рождения одного из отдыхающих. Паша даже не подозревает кого...
09 серия.
Паша и Олеся пробуют начать все сначала, но не так, как раньше. Они должны постоянно удивлять друг друга. Эдик соревнуется с Юлей во всем и совсем не выигрывает. А у Севы дома стоит жуткий запах...
10 серия.
К Паше неожиданно приезжает его давний приятель и он ему совсем не рад. Сева штрафует Эдика и отца Олеси за прогулы и прочее нарушение на основании нового договора. Им это быстро надоедает.
11 серия.
Эдик старается наставить Ваню на путь истинный, а то парень получает одни двойки. Ради этого он даже пытается восстановиться в институт. Паша и Олеся меняются местами и теперь Олеся - мужик в доме, а Паша - женщина. Сева переживает, что дочка закончит год на отлично и ему придется купить ей обещанный подарок.
12 серия.
Сева обеспокоен доходами и расходами своей семьи. Олеся хочет отпраздновать бумажную свадьбу. Паша говорит, что против, но сам готовит Олесе сюрприз. Эдик узнает, что Юля замужем.
13 серия.
Эдик собирается идти на курсы анонимных сексоголиков. Сева думает, как назвать своих сыновей и склоняется к именам друзей. А сын Олеси и Паши снимется в своей первой рекламе...
14 серия.
Эдик ищет подходящее хобии, которое отвлечет его от секса. Но это дается ему очень не просто. Тамара намекает Севе на то, что с прибавлением в семействе им нужно подумать о новой квартире. Сева принимается за дело. У Пашиной программы увеличиваются рейтинги блягодаря новому гостю.

Кадры из фильма

Тех. данные (MI)

Код:
Общее
Уникальный идентификатор                 : 186583723397679074404416947678715495010 (0x8C5EB7CF0624DBDE9212151D7AD2C262)
Полное имя                               : G:\Сериалы\Светофор (7 cезон) 2014 WEB-DLRip 720\Светофор 7 - 01 серия.mkv
Формат                                   : Matroska
Версия формата                           : Version 2
Размер файла                             : 485 Мбайт
Продолжительность                        : 24 м.
Общий поток                              : 2756 Кбит/сек
Дата кодирования                         : UTC 2014-10-13 17:55:26
Программа кодирования                    : mkvmerge v6.1.0 ('Old Devil') built on Mar  4 2013 09:10:42
Библиотека кодирования                   : libebml v1.3.0 + libmatroska v1.4.0
Видео
Идентификатор                            : 1
Формат                                   : AVC
Формат/Информация                        : Advanced Video Codec
Профиль формата                          : High@L3.1
Параметр CABAC формата                   : Да
Параметр ReFrames формата                : 4 кадра
Идентификатор кодека                     : V_MPEG4/ISO/AVC
Продолжительность                        : 24 м.
Битрейт                                  : 2500 Кбит/сек
Ширина                                   : 1280 пикселей
Высота                                   : 720 пикселей
Соотношение сторон                       : 16:9
Режим частоты кадров                     : Постоянный
Частота кадров                           : 25,000 кадров/сек
Цветовое пространство                    : YUV
Субдискретизация насыщенности            : 4:2:0
Битовая глубина                          : 8 бит
Тип развёртки                            : Прогрессивная
Бит/(Пиксели*Кадры)                      : 0.109
Размер потока                            : 431 Мбайт (89%)
Библиотека кодирования                   : x264 core 140
Настройки программы                      : cabac=1 / ref=3 / deblock=1:0:0 / analyse=0x3:0x113 / me=hex / subme=7 / psy=1 / psy_rd=1.00:0.00 / mixed_ref=1 / me_range=16 / chroma_me=1 / trellis=1 / 8x8dct=1 / cqm=0 / deadzone=21,11 / fast_pskip=1 / chroma_qp_offset=-2 / threads=24 / lookahead_threads=4 / sliced_threads=0 / nr=0 / decimate=1 / interlaced=0 / bluray_compat=0 / constrained_intra=0 / bframes=3 / b_pyramid=2 / b_adapt=1 / b_bias=0 / direct=1 / weightb=1 / open_gop=0 / weightp=2 / keyint=250 / keyint_min=25 / scenecut=40 / intra_refresh=0 / rc_lookahead=40 / rc=abr / mbtree=1 / bitrate=2500 / ratetol=1.0 / qcomp=0.60 / qpmin=0 / qpmax=69 / qpstep=4 / vbv_maxrate=5000 / vbv_bufsize=10000 / nal_hrd=none / filler=0 / ip_ratio=1.40 / aq=1:1.00
Язык                                     : English
Default                                  : Да
Forced                                   : Нет
Аудио
Идентификатор                            : 2
Формат                                   : AC-3
Формат/Информация                        : Audio Coding 3
Расширение режима                        : CM (complete main)
Параметр Endianness формата              : Big
Идентификатор кодека                     : A_AC3
Продолжительность                        : 24 м.
Вид битрейта                             : Постоянный
Битрейт                                  : 256 Кбит/сек
Каналы                                   : 2 канала
Расположение каналов                     : Front: L R
Частота                                  : 48,0 КГц
Битовая глубина                          : 16 бит
Метод сжатия                             : С потерями
Размер потока                            : 45,1 Мбайт (9%)
Default                                  : Да
Forced                                   : Нет

Внимание! Раздача ведётся путём добавления новых серий

Внимание! Раздача ведётся путём добавления новых серий; при каждом добавлении создаётся новый торрент.
Чтобы начать докачку новой серии, пользователям необходимо сделать следующее:
1. Остановить скачивание;
2. Удалить старый торрент у себя из клиента (старые серии удалять не надо);
3. Скачать новый торрент и запустить его у себя в клиенте вместо старого, при этом указать клиенту путь в старую папку куда и должно происходить скачивание новых серий. Ваш клиент при этом должен произвести хеширование (проверку) старой папки и будет докачивать только те серии, которых у вас ещё нет. Старые серии при этом не удаляются, а продолжают раздаваться! Eсли вы уже удалили старые серии, то предотвратить повторную закачку старых серий можно, отжав галочку в соответствующих местах при запуске нового торрента.
«СЕЗОН 1-4» «СЕЗОН 5» «СЕЗОН 6»

_________________
[Торрент-статистика]
[Профиль]  [ЛС] 
Показать сообщения:    
Ответить на тему

Текущее время: Сегодня 19:41

Часовой пояс: GMT + 4



Вы не можете начинать темы
Вы не можете отвечать на сообщения
Вы не можете редактировать свои сообщения
Вы не можете удалять свои сообщения
Вы не можете голосовать в опросах
Вы не можете прикреплять файлы к сообщениям
Вы не можете скачивать файлы