Тайный город / Сезон:1 /Серия 1-8 из 16 (Александр Мохов)[2014 г., Фэнтези, SATRip]

Ответить на тему
 
Автор
Сообщение

awk05 ®

Пол:

Стаж: 4 года 5 месяцев

Сообщений: 1352

Репутация: 275 [+] [-]

Откуда: Западная Украина Ривне

Пост 04-Май-2014 17:44

[Цитировать] 

--Тайный город-- Страна: Россия
Год выпуска: 2014
Жанр: Фэнтези
Сезон/Серия: Сезон:1 /Серия 1-8 из 16
Продолжительность: 8 х ~ 00:47:00
Язык: Русский
Субтитры: отсутствуют--Режиссер: Александр Мохов--Актеры: Павел Прилучный, Марцин Руй, Игорь Жижикин, Александра Флоринская, Елена Ташаева, Александр Мохов, Илья Исаев, Юлия Такшина, Михаил Горевой, Михаил Полицеймако, Дмитрий Митюрич, Ангелина Добророднова, Дарья Сагалова, Кирилл Дубровицкий, Александр Числов, Агата Муцениеце, Сергей Романович, Даниил Меркулов, Юлия Самойленко, Ольга Дементьева, Светлана Устинова, Иван Литвинов, Екатерина Долгова, Александр Стёпин--Описание фильма: Экранизация двух первых романов из цикла Вадима Панова «Тайный Город» – «Войны начинают неудачники» и «Командор войны». Сериал-фэнтези «Тайный город» рассказывает о «другой Москве», где неизвестно — сколько сердец у твоего соседа. Ведьмы, оборотни… Наши предки преследовали их и беспощадно уничтожали. Но потомки этих исчезнувших цивилизаций и сейчас обитают в магическом Тайном городе, который много тысяч лет существует на территории Москвы и сокрыт от глаз обычных людей защитными чарами. Но некоторым все же удастся в него заглянуть, и даже — освоиться в Тайном Городе.--Качество видео:SATRip
Формат видео: AVI
Видео кодек: MPEG4, XviD
Аудио кодек: MP3
Видео: MPEG4, XviD, 720x400 (16:9), 25.000 fps, 1 495 Kbps (0.208 bit/pixel)
Аудио: MP3, 48.0 KHz, 2 ch, 128 Kbps, CBR[RUS] -- --

Тех. данные (MI)

Общее
Полное имя : G:\Сериалы\Tajnyj gorod\Tajnyj gorod.s.01..avi
Формат : AVI
Формат/Информация : Audio Video Interleave
Размер файла : 560 Мбайт
Продолжительность : 47 м.
Общий поток : 1633 Кбит/сек
Программа кодирования : VirtualDubMod 1.5.10.2 (build 2540/release)
Библиотека кодирования : VirtualDub build 34703/release
Видео
Идентификатор : 0
Формат : MPEG-4 Visual
Профиль формата : Advanced Simple@L5
Параметр BVOP формата : 2
Параметр QPel формата : Нет
Параметр GMC формата : Без точки перехода
Параметр матрицы формата : Default (MPEG)
Режим смешивания : Сжатый битовый поток
Идентификатор кодека : XVID
Идентификатор кодека/Подсказка : XviD
Продолжительность : 47 м.
Битрейт : 1495 Кбит/сек
Ширина : 720 пикселей
Высота : 400 пикселей
Соотношение сторон : 16:9
Частота кадров : 25,000 кадров/сек
Цветовое пространство : YUV
Субдискретизация насыщенности : 4:2:0
Битовая глубина : 8 бит
Тип развёртки : Прогрессивная
Метод сжатия : С потерями
Бит/(Пиксели*Кадры) : 0.208
Размер потока : 513 Мбайт (92%)
Библиотека кодирования : XviD 64
Аудио
Идентификатор : 1
Формат : MPEG Audio
Версия формата : Version 1
Профиль формата : Layer 3
Режим : Joint stereo
Идентификатор кодека : 55
Идентификатор кодека/Подсказка : MP3
Продолжительность : 47 м.
Вид битрейта : Постоянный
Битрейт : 128 Кбит/сек
Каналы : 2 канала
Частота : 48,0 КГц
Метод сжатия : С потерями
Размер потока : 43,9 Мбайт (8%)
Выравнивание : Соединение по промежуткам
Продолжительность промежутка : 40 мс. (1,00 видеокадр)
Время предзагрузки промежутка : 504 мс.

Скриншоты



Раздача ведется путем добавления новых серий

Внимание! Раздача ведётся путём добавления новых серий; при каждом добавлении создаётся новый торрент.
Чтобы начать докачку новой серии, пользователям необходимо сделать следующее:
1. Остановить скачивание;
2. Удалить старый торрент у себя из клиента (старые серии удалять не надо);
3. Скачать новый торрент и запустить его у себя в клиенте вместо старого, при этом указать клиенту путь в старую папку куда и должно происходить скачивание новых серий. Ваш клиент при этом должен произвести хеширование (проверку) старой папки и будет докачивать только те серии, которых у вас ещё нет. Старые серии при этом не удаляются, а продолжают раздаваться! Eсли вы уже удалили старые серии, то предотвратить повторную закачку старых серий можно, отжав галочку в соответствующих местах при запуске нового торрента.

_________________
[Торрент-статистика]
[Профиль]  [ЛС] 
Показать сообщения:    
Ответить на тему

Текущее время: Сегодня 20:33

Часовой пояс: GMT + 4



Вы не можете начинать темы
Вы не можете отвечать на сообщения
Вы не можете редактировать свои сообщения
Вы не можете удалять свои сообщения
Вы не можете голосовать в опросах
Вы не можете прикреплять файлы к сообщениям
Вы не можете скачивать файлы