Опасная любовь / Сезон:1 /Серия 1-4 из 4 (Кирилл Капица)[2014 г., Криминал, остросюжетный, драма SATRip]

Ответить на тему
 
Автор
Сообщение

awk05 ®

Пол:

Стаж: 4 года 5 месяцев

Сообщений: 1352

Репутация: 275 [+] [-]

Откуда: Западная Украина Ривне

Пост 28-Апр-2014 00:35

[Цитировать] 

--Опасная любовь-- Год выпуска: 2014
Жанр: Криминал, остросюжетный, драма
Выпущено: Россия, "Star Media"
Сезон/Серия: Сезон:1 /Серия 1-4 из 4
Продолжительность: 4 х ~ 00:44:00 / серия--Режиссер: Кирилл Капица--В ролях: Игорь Лифанов, Анна Сырбу, Сергей Воробьёв, Владимир Щербаков, Игорь Петрусенко, Владимир Осадчий, Елена Турбал, Екатерина Кистень, Станислав Москвин, Игорь Гнездилов, Кирилл Капица, Евгений Ефремов, Андрей Мостренко, Сергей Деревянко, Дмитрий Гаврилов, Владимир Горянский, Дмитрий Сова, Вячеслав Довженко, Сергей Бондарчук, Игорь Мельников, Владимир Заднепровский, Юрий Высоцкий, Алексей Дребезгов, Александра Олейник, Игорь Арнаутов, Ада Роговцева, Григорий Боковенко--О фильме: Банда Ивана Золотарева грабит только нечестных на руку бизнесменов, зарабатывающих свои деньги при помощи криминала. Члены банды считают себя современными "робингудами", они не просто грабят, а придумывают целое театральное действие, откровенно развлекаясь. У них есть принцип - никаких убийств, не при каких обстоятельствах. Иван - хитрый и смекалистый бандит, благодаря его выдумкам и осторожности, полиция никак не может напасть на их след . Но однажды случился сбой в налаженной схеме. При ограблении бизнесмена, один из членов банды застрелил телохранителя. В банде начался разлад... Дальше-больше. Один из бандитов украл деньги, принадлежавшие мафии, контролирующей продажу оружия в регионе. Во время погони он был случайно убит. Никто не знает, где он спрятал украденные деньги. Один только шанс, что об этом может знать вдова убитого. Иван знакомится с ней и неожиданно для себя влюбляется. И кажется - это взаимно. А полиция тем временем нападает на след банды...--Качество видео:SATRip
Формат видео: AVI
Видео кодек: MPEG4, XviD
Аудио кодек: MP3
Видео: MPEG4, XviD, 720x448 (1.607), 25.000 fps, 1 800 Kbps (0.223 bit/pixel)
Аудио: MP3, 48.0 KHz, 2 ch, 128 Kbps, CBR[RUS] --

MediaInfo

Общее
Полное имя : E:\Сериалы новые\Opasnaya.lyubovj.2014.SATRip\Opasnaya.lyubovj.01.2014.SATRip.KZ.avi
Формат : AVI
Формат/Информация : Audio Video Interleave
Размер файла : 604 Мбайт
Продолжительность : 43 м.
Общий поток : 1938 Кбит/сек
Программа кодирования : VirtualDubMod 1.5.10.3 | www.virtualdub-fr.org || (build 2550/release)
Библиотека кодирования : VirtualDub build 32507/release
Видео
Идентификатор : 0
Формат : MPEG-4 Visual
Профиль формата : Advanced Simple@L5
Параметр BVOP формата : 2
Параметр QPel формата : Нет
Параметр GMC формата : Без точки перехода
Параметр матрицы формата : Default (MPEG)
Идентификатор кодека : XVID
Идентификатор кодека/Подсказка : XviD
Продолжительность : 43 м.
Битрейт : 1800 Кбит/сек
Ширина : 720 пикселей
Высота : 448 пикселей
Соотношение сторон : 16:10
Частота кадров : 25,000 кадров/сек
Цветовое пространство : YUV
Субдискретизация насыщенности : 4:2:0
Битовая глубина : 8 бит
Тип развёртки : Прогрессивная
Метод сжатия : С потерями
Бит/(Пиксели*Кадры) : 0.223
Размер потока : 561 Мбайт (93%)
Библиотека кодирования : XviD 1.2.1 (UTC 2008-12-04)
Аудио
Идентификатор : 1
Формат : MPEG Audio
Версия формата : Version 1
Профиль формата : Layer 3
Режим : Joint stereo
Идентификатор кодека : 55
Идентификатор кодека/Подсказка : MP3
Продолжительность : 43 м.
Вид битрейта : Постоянный
Битрейт : 128 Кбит/сек
Каналы : 2 канала
Частота : 48,0 КГц
Метод сжатия : С потерями
Размер потока : 39,9 Мбайт (7%)
Выравнивание : Соединение по промежуткам
Продолжительность промежутка : 40 мс. (1,00 видеокадр)
Время предзагрузки промежутка : 504 мс.
Библиотека кодирования : LAME3.99r
Настройки программы : -m j -V 4 -q 2 -lowpass 17 -b 128

Скриншоты


_________________
[Торрент-статистика]
[Профиль]  [ЛС] 
Показать сообщения:    
Ответить на тему

Текущее время: Сегодня 22:17

Часовой пояс: GMT + 4



Вы не можете начинать темы
Вы не можете отвечать на сообщения
Вы не можете редактировать свои сообщения
Вы не можете удалять свои сообщения
Вы не можете голосовать в опросах
Вы не можете прикреплять файлы к сообщениям
Вы не можете скачивать файлы