Ладога / Серии 1-4 из 4 (Александр Велединский) [2014 г., военный, драма, DVDRip] [Лицензия]

Ответить на тему
 
Автор
Сообщение

TiZAr ®

Пол:

Стаж: 3 года 3 месяца

Сообщений: 836

Репутация: 1157 [+] [-]

Откуда: Россия

Пост 23-Апр-2014 22:08

[Цитировать] 

Ладога- Страна: Россия / "МАРМОТ-ФИЛЬМ"
Жанр: военный, драма
Год выпуска: 2014
Продолжительность: ~00:53:00 - серия
Перевод: Не требуется
Cубтитры: нет
Оригинальная аудиодорожка: русский
Режиссер: Александр Велединский- -В ролях:
Ксения Раппопорт, Алексей Серебряков, Андрей Мерзликин, Дмитрий Назаров, Юрий Кузнецов, Виталий Коваленко, Яков Шамшин, Филипп Ершов, Олег Фёдоров, Андрюс Паулавичюс...
Описание:
Блокадный Ленинград. Зима 1942-го. Советская контрразведка узнает, что немцы готовят диверсию на «Дороге жизни» — единственном пути, по которому в город доставляется продовольствие и другие грузы. Скорее всего, диверсант — один из водителей «полуторок», работающих на замерзшем Ладожском озере. Найти и остановить врага должен капитан НКВД Сергиенко…
Все раздачи сериала
Раздача от:

Качество: DVDRip | Сэмпл | Исходник: DVD9 R5
Формат: AVI
Видео: 720x400 (16:9), 25.000 fps, XviD ~ 2000 kbps avg, 0.278 bit/pixel
Аудио: 48 kHz, Dolby AC3, 2 ch, 192 kbps, русский

MediaInfo

Код:
Общее
Полное имя                               : Ladoga.2013.O.DVDRip_[New-Team]_by_avproh\01.avi
Формат                                   : AVI
Формат/Информация                        : Audio Video Interleave
Размер файла                             : 830 Мбайт
Продолжительность                        : 52 м.
Общий поток                              : 2201 Кбит/сек
Программа кодирования                    : VirtualDubMod 1.5.10.3 | www.virtualdub-fr.org || (build 2550/release)
Библиотека кодирования                   : VirtualDubMod build 2550/release
Видео
Идентификатор                            : 0
Формат                                   : MPEG-4 Visual
Профиль формата                          : Advanced Simple@L5
Параметр BVOP формата                    : 1
Параметр QPel формата                    : Нет
Параметр GMC формата                     : Без точки перехода
Параметр матрицы формата                 : Выборочная
Идентификатор кодека                     : XVID
Идентификатор кодека/Подсказка           : XviD
Продолжительность                        : 52 м.
Битрейт                                  : 1999 Кбит/сек
Ширина                                   : 720 пикселей
Высота                                   : 400 пикселей
Соотношение сторон                       : 16:9
Частота кадров                           : 25,000 кадров/сек
Цветовое пространство                    : YUV
Субдискретизация насыщенности            : 4:2:0
Битовая глубина                          : 8 бит
Тип развёртки                            : Прогрессивная
Метод сжатия                             : С потерями
Бит/(Пиксели*Кадры)                      : 0.278
Размер потока                            : 754 Мбайт (91%)
Библиотека кодирования                   : XviD 73
Аудио
Идентификатор                            : 1
Формат                                   : AC-3
Формат/Информация                        : Audio Coding 3
Расширение режима                        : CM (complete main)
Параметр Endianness формата              : Big
Идентификатор кодека                     : 2000
Продолжительность                        : 52 м.
Вид битрейта                             : Постоянный
Битрейт                                  : 192 Кбит/сек
Каналы                                   : 2 канала
Расположение каналов                     : Front: L R
Частота                                  : 48,0 КГц
Битовая глубина                          : 16 бит
Метод сжатия                             : С потерями
Размер потока                            : 72,4 Мбайт (9%)
Выравнивание                             : Разделение по промежуткам
Продолжительность промежутка             : 40  мс. (1,00 видеокадр)
Время предзагрузки промежутка            : 500  мс.

Скриншоты:

Сравнение:

SATRip->DVDRip видео http://screenshotcomparison.com/comparison/71687
SATRip->DVDRip аудио http://screenshotcomparison.com/comparison/71685 - у конкурента звук MP3, 2 ch, 128 Кбит/с, в моем релизе АС3, 2 ch, 192 Кбит/с.
HDTVRip->DVDRip видео http://screenshotcomparison.com/comparison/71689
HDTVRip->DVDRip аудио http://screenshotcomparison.com/comparison/71690 - у конкурента звук MP3, 2 ch, 128 Кбит/с, в моем релизе читай выше.
Ремарка: Про SATRip говорить не буду, тут и так всё ясно, а вот про HDTVRip хочу сказать отдельно. По HD каналам часто гонят низкобитрейтные трансляции с плохим звуком. Если само HDTV ещё смотреть можно, то рипы с них делать чаще всего получается не очень здорово, что и доказывает приведенное выше сравнение. Будем ждать Blu-Ray.

_________________
Не стоит обращать внимания на отсутствие сидов на моих раздачах. Все мои релизы мультитрекерные - нет сидов, включите DHT.
За релизами в HD качестве обращайтесь в личку, либо отписывайтесь в теме.
[Торрент-статистика]
[Профиль]  [ЛС] 
Показать сообщения:    
Ответить на тему

Текущее время: Сегодня 06:24

Часовой пояс: GMT + 4



Вы не можете начинать темы
Вы не можете отвечать на сообщения
Вы не можете редактировать свои сообщения
Вы не можете удалять свои сообщения
Вы не можете голосовать в опросах
Вы не можете прикреплять файлы к сообщениям
Вы не можете скачивать файлы