Неформат / Сезон:1 /Серия 1-22 из 22 (Антон Федотов) [2014 г., Комедия, драма, SATRip]

Ответить на тему
 
Автор
Сообщение

awk05 ®

Пол:

Стаж: 4 года 5 месяцев

Сообщений: 1352

Репутация: 275 [+] [-]

Откуда: Западная Украина Ривне

Пост 22-Апр-2014 23:07

[Цитировать] 

--Неформат-- Год выпуска: 2014
Выпущено: Россия, YBW Group, СТС
Жанр: Комедия, драма
Сезон/Серия: Сезон:1 /Серия 1-22 из 22
Продолжительность: 22 ~ 00:45:00
Субтитры: отсутствуют--Режиссер: Антон Федотов--В ролях: Антон Хабаров, Гоша Куценко, Мария Козакова, Константин Юшкевич, Лиана Ермакова, Елена Корикова, Константин Соловьёв, Сергей Годин, Сергей Бурунов, Филипп Азаров, Юлия Чебакова--О фильме:Ирина Серебрякова — начинающий продюсер «Открытого канала» — неосторожно критикует начальство в своем личном блоге. Пост попадается на глаза «генеральному» и после громкого скандала Ирине в руководство отдают самую безнадежную телепередачу, которую, скорее всего, скоро закроют. Кроме того в этот же момент от героини уходит жених и она остается без крыши над головой.
Теперь девушка пытается бросить все силы на восстановление доверенного ей ток-шоу и собирает новую команду. Однако в связи с отсутствием финансирования, она вынуждена набрать хоть и самых профессиональных, но в то же время крайне проблемных работников телевидения — таких, которым просто не из чего выбирать.
Но главную ставку Ирина делает на нового ведущего Романа Арсеньева — прекрасного актера и блистательного шоумена, который одним своим появлением может легко увлечь любого, даже самого привередливого зрителя.
Однако существует одна проблема — Роман запойный пьяница, человек, полностью разрушивший свою карьеру, с которым уже давно не желают иметь дела не только коллеги, но даже друзья и близкие.
Отныне многие события, происходящие не только в экранной, но и закадровой жизни ток-шоу являются следствием непредсказуемого поведения Романа.--Качество видео:SATRip
Формат видео: AVI
Видео кодек: MPEG4, DivX 5
Аудио кодек: MP3
Видео: MPEG4, DivX 5, 720x368 (1.957), 25.000 fps, 1 500 Kbps (0.226 bit/pixel)
Аудио: MP3, 48.0 KHz, 2 ch, 128 Kbps, CBR[RUS] -- --

MediaInfo

Общее
Полное имя : E:\тест\Neformat.SATRip\Drugoj.format.01.avi
Формат : AVI
Формат/Информация : Audio Video Interleave
Размер файла : 534 Мбайт
Продолжительность : 45 м.
Общий поток : 1641 Кбит/сек
Программа кодирования : transcode-1.1.5
Видео
Идентификатор : 0
Формат : MPEG-4 Visual
Параметр BVOP формата : Да
Параметр QPel формата : Нет
Параметр GMC формата : Без точки перехода
Параметр матрицы формата : Default (H.263)
Идентификатор кодека : DX50
Идентификатор кодека/Подсказка : DivX 5
Продолжительность : 45 м.
Битрейт : 1500 Кбит/сек
Ширина : 720 пикселей
Высота : 368 пикселей
Соотношение сторон : 1,957
Частота кадров : 25,000 кадров/сек
Цветовое пространство : YUV
Субдискретизация насыщенности : 4:2:0
Битовая глубина : 8 бит
Тип развёртки : Прогрессивная
Метод сжатия : С потерями
Бит/(Пиксели*Кадры) : 0.226
Размер потока : 488 Мбайт (91%)
Библиотека кодирования : Intel(R) MPEG-4 encoder based on Intel(R) IPP 6.1 build 137.20[6.1.137.763]
Аудио
Идентификатор : 1
Формат : MPEG Audio
Версия формата : Version 1
Профиль формата : Layer 3
Режим : Joint stereo
Расширение режима : MS Stereo
Идентификатор кодека : 55
Идентификатор кодека/Подсказка : MP3
Продолжительность : 45 м.
Вид битрейта : Постоянный
Битрейт : 128 Кбит/сек
Каналы : 2 канала
Частота : 48,0 КГц
Метод сжатия : С потерями
Размер потока : 41,6 Мбайт (8%)
Выравнивание : Соединение по промежуткам
Продолжительность промежутка : 24 мс. (0,60 видеокадр)
Время предзагрузки промежутка : 48 мс.
Библиотека кодирования : LAME3.98.2

Скриншоты




_________________
[Торрент-статистика]
[Профиль]  [ЛС] 
Показать сообщения:    
Ответить на тему

Текущее время: Сегодня 06:22

Часовой пояс: GMT + 4



Вы не можете начинать темы
Вы не можете отвечать на сообщения
Вы не можете редактировать свои сообщения
Вы не можете удалять свои сообщения
Вы не можете голосовать в опросах
Вы не можете прикреплять файлы к сообщениям
Вы не можете скачивать файлы