Инквизитор / Сезон: 1 / Серии: 1-12 из 12 (Юрий Мороз) [2014, детектив, триллер, SATRip]

Ответить на тему
 
Автор
Сообщение

awk05 ®

Пол:

Стаж: 4 года 5 месяцев

Сообщений: 1352

Репутация: 275 [+] [-]

Откуда: Западная Украина Ривне

Пост 22-Апр-2014 22:51

[Цитировать] 

--Инквизитор-- Год выпуска: 2014
Производство: кинокомпания "Профит"
Жанр: детектив, триллер
Сезон/Серия: Сезон:1 /Серия 1-12 из 12
Продолжительность: 12 х ~ 00:51:00
Субтитры: Нет--Режиссёр: Юрий Мороз--В ролях: Константин Лавроненко, Виктор Вержбицкий, Виктория Исакова, Андрей Смоляков, Александр Лыков, Николай Козак, Дарья Мороз, Александр Голубев, Дмитрий Астрахан, Алексей Кирсанов, Александр Числов, Максим Стоянов, Андрей Межулис, Мария Климова (II)--Описание: Провинциальный городок на западной границе России потрясает зловещая череда убийств. Некто с жестокостью средневекового инквизитора отправляет на тот свет влиятельных людей, оставляя загадочные послания на латыни. Кто следующий – Инквизитор подсказывает сам, но шанса на спасение не дает. Кажется, что Инквизитор может предугадать каждый шаг следствия, однако петербургская сыщица Наталья Серебрянская готова принять брошенный вызов…--Доп. информация: Реклама отсутствует!--Качество видео:SATRip
Формат видео: AVI
Видео кодек: XviD
Аудио кодек: MP3
Видео: MPEG4, XviD, 720x384 (1.875), 25.000 fps, 1 500 Kbps (0.217 bit/pixel)
Аудио: MP3, 48.0 KHz, 2 ch, 192 Kbps, CBR[RUS] -- --

MI

Общее
Полное имя : R:\Сериалы 2014\Инквизитор (2014)\Инквизитор.(01.seriya).2014.XviD.SATRip.by.simka.avi
Формат : AVI
Формат/Информация : Audio Video Interleave
Размер файла : 566 Мбайт
Продолжительность : 46 м.
Общий поток : 1702 Кбит/сек
Программа кодирования : VirtualDubModRus 1.5.10.2 (build 2542/release)
Библиотека кодирования : VirtualDubMod build 2542/release
Видео
Идентификатор : 0
Формат : MPEG-4 Visual
Профиль формата : Advanced Simple@L5
Параметр BVOP формата : 1
Параметр QPel формата : Нет
Параметр GMC формата : Без точки перехода
Параметр матрицы формата : Default (MPEG)
Идентификатор кодека : XVID
Идентификатор кодека/Подсказка : XviD
Продолжительность : 46 м.
Битрейт : 1500 Кбит/сек
Ширина : 720 пикселей
Высота : 384 пикселя
Соотношение сторон : 1,85:1
Частота кадров : 25,000 кадров/сек
Цветовое пространство : YUV
Субдискретизация насыщенности : 4:2:0
Битовая глубина : 8 бит
Тип развёртки : Прогрессивная
Метод сжатия : С потерями
Бит/(Пиксели*Кадры) : 0.217
Размер потока : 499 Мбайт (88%)
Библиотека кодирования : XviD 1.2.1 (UTC 2008-12-04)
Аудио
Идентификатор : 1
Формат : MPEG Audio
Версия формата : Version 1
Профиль формата : Layer 3
Режим : Joint stereo
Расширение режима : MS Stereo
Идентификатор кодека : 55
Идентификатор кодека/Подсказка : MP3
Продолжительность : 46 м.
Вид битрейта : Постоянный
Битрейт : 192 Кбит/сек
Каналы : 2 канала
Частота : 48,0 КГц
Метод сжатия : С потерями
Размер потока : 63,9 Мбайт (11%)
Выравнивание : Соединение по промежуткам
Продолжительность промежутка : 40 мс. (1,00 видеокадр)
Время предзагрузки промежутка : 504 мс.
Библиотека кодирования : LAME3.99r
Настройки программы : -m j -V 4 -q 2 -lowpass 18.6 -b 192

Скриншоты


[/url]

Внимание! Раздача ведётся путём добавления новых выпусков

При каждом добавлении создаётся новый торрент. Чтобы начать докачку нового выпуска, пользователям необходимо сделать следующее:
● остановить скачивание;
● удалить старый торрент у себя из клиента (старые выпуски удалять не надо);
● скачать новый торрент и запустить его у себя в клиенте вместо старого, при этом указать клиенту путь в старую папку куда и должно происходить скачивание новых выпусков;
● ваш клиент при запуске должен произвести хеширование (проверку) старой папки (если не производит сам - помогите ему сделать это), и будет докачивать только те выпуски, которых у вас ещё нет. Старые выпуски при этом не удаляются, а продолжают раздаваться!, Конец фильма!
● Eсли вы уже удалили старые выпуски, то предотвратить повторную закачку старых выпусков можно, отжав галочку в соответсвующих местах при запуске нового торрента.

_________________
[Торрент-статистика]
[Профиль]  [ЛС] 
Показать сообщения:    
Ответить на тему

Текущее время: Сегодня 18:22

Часовой пояс: GMT + 4



Вы не можете начинать темы
Вы не можете отвечать на сообщения
Вы не можете редактировать свои сообщения
Вы не можете удалять свои сообщения
Вы не можете голосовать в опросах
Вы не можете прикреплять файлы к сообщениям
Вы не можете скачивать файлы