Склифосовский (Склиф) / Сезон: 2 / Серии 1-24 из 24) (Дмитрий Фикс, Сергей Репецкий, Илья Максимов) [2013 г., Драма, мелодрама, SATRip ]

Ответить на тему
 
Автор
Сообщение

awk05 ®

Пол:

Стаж: 4 года 5 месяцев

Сообщений: 1352

Репутация: 275 [+] [-]

Откуда: Западная Украина Ривне

Пост 14-Апр-2014 22:41

[Цитировать] 

--Склифосовский (Склиф)-- Выпущено: Россия, Телекомпания
Год выпуска: 2013
Жанр: Драма, мелодрама
Сезон/Серия: Сезон:2 /Серия 1-24 из 24
Продолжительность: 24 х ~ 00:45:00
Перевод: Не требуется
Субтитры: отсутствуют--Режиссёр: Дмитрий Фикс, Сергей Репецкий, Илья Максимов--В ролях: Максим Аверин, Ольга Красько, Мария Кожевникова, Дмитрий Миллер, Евгений Галушко, Ольга Павловец, Екатерина Травова, Антон Эльдаров, Алёна Яковлева, Эммануил Виторган, Владимир Жеребцов, Лаура Кеосаян, Андриана Садковская, Александр Сетейкин, Руслан Ягудин, Анна Якунина, Игорь Петрусенко, Денис Давыдов, Серафима Низовская, Анна Кудасова, Юлия Маргулис, Кристина Кучеренко, Ольга Торощина, Андрей Бестужев (Погорельцев), Максим Щёголев, Дмитрий Арбенин, Игорь Мещерин, Владимир Довжик, Марина Могилевская, Андрей Москвичев, Константин Юшкевич, Дарья Егорова, Илья Ловкий, Леонид Тележинский, Виталий Герасимов, Владимир Демидов, Александр Дзюба, Всеволод Макаров, Марина Богатова, Алина Волощук, Ирина Сенотова, Виктор Полторацкий--Описание: Фильм приоткрывает завесу главного института скорой помощи – знаменитого Склифа. Здесь нет времени на долгие раздумья, Склиф – это внеплановые операции, и, чтобы спасти человека, принять верное решение надо здесь и сейчас.
Как никому другому, это удается главному герою, хирургу Брагину. Помимо профессиональных удач, за Брагиным тянется и слава первого ловеласа, благо мужского обаяния ему не занимать.. Видя каждый день жизнь и смерть, Брагин давно утратил сентиментальность и не утруждает себя мыслями о чужих чувствах, «великие страсти» только веселят его..--Качество видео:SATRip
Формат видео: AVI
Видео кодек: MPEG4, DivX 5
Аудио кодек: MP3
Видео: 704x400 (16:9), 25.000 кадра/сек, 1 600 Кбит/сек, (0.227 бит/пиксели*кадры)
Аудио: 2 канала Front: L R, 48,0 КГц, 128 Кбит/сек, 16 бит CBR[RUS] -- --

MediaInfo

Общее
Полное имя : E:\тест\Склифосовский-2 (Склиф) (2013)\Склифосовский-2 (Склиф). Серия 01 (2013).avi
Формат : AVI
Формат/Информация : Audio Video Interleave
Размер файла : 562 Мбайт
Продолжительность : 45 м.
Общий поток : 1738 Кбит/сек
Библиотека кодирования : VirtualDub-MPEG2 build 24600/release
Видео
Идентификатор : 0
Формат : MPEG-4 Visual
Параметр BVOP формата : Да
Параметр QPel формата : Нет
Параметр GMC формата : Без точки перехода
Параметр матрицы формата : Default (H.263)
Идентификатор кодека : DX50
Идентификатор кодека/Подсказка : DivX 5
Продолжительность : 45 м.
Битрейт : 1600 Кбит/сек
Ширина : 704 пикселя
Высота : 400 пикселей
Соотношение сторон : 16:9
Частота кадров : 25,000 кадров/сек
Цветовое пространство : YUV
Субдискретизация насыщенности : 4:2:0
Битовая глубина : 8 бит
Тип развёртки : Прогрессивная
Метод сжатия : С потерями
Бит/(Пиксели*Кадры) : 0.227
Размер потока : 518 Мбайт (92%)
Библиотека кодирования : Intel(R) MPEG-4 encoder based on Intel(R) IPP 6.1 build 137.20[6.1.137.763]
Аудио
Идентификатор : 1
Формат : MPEG Audio
Версия формата : Version 1
Профиль формата : Layer 3
Режим : Joint stereo
Идентификатор кодека : 55
Идентификатор кодека/Подсказка : MP3
Продолжительность : 45 м.
Вид битрейта : Постоянный
Битрейт : 128 Кбит/сек
Каналы : 2 канала
Частота : 48,0 КГц
Метод сжатия : С потерями
Размер потока : 41,4 Мбайт (7%)
Выравнивание : Разделение по промежуткам
Продолжительность промежутка : 40 мс. (1,00 видеокадр)
Время предзагрузки промежутка : 500 мс.
Библиотека кодирования : LAME3.98.2

Скриншоты


_________________
[Торрент-статистика]
[Профиль]  [ЛС] 
Показать сообщения:    
Ответить на тему

Текущее время: Сегодня 20:37

Часовой пояс: GMT + 4



Вы не можете начинать темы
Вы не можете отвечать на сообщения
Вы не можете редактировать свои сообщения
Вы не можете удалять свои сообщения
Вы не можете голосовать в опросах
Вы не можете прикреплять файлы к сообщениям
Вы не можете скачивать файлы