Склифосовский (Склиф) / Сезон: 1 / Серии 1-24 из 24) (Дмитрий Фикс, Сергей Репецкий, Илья Максимов) [2012 г., Драма, мелодрама, DVDRip]

Ответить на тему
 
Автор
Сообщение

awk05 ®

Пол:

Стаж: 4 года 5 месяцев

Сообщений: 1352

Репутация: 275 [+] [-]

Откуда: Западная Украина Ривне

Пост 14-Апр-2014 22:17

[Цитировать] 

--Склифосовский (Склиф)-- Выпущено: Россия, Кинокомпания "Русское"
Год выпуска: 2012
Жанр: Драма, мелодрама
Сезон/Серия: Сезон:1 /Серия 1-24 из 24
Продолжительность: 24 х ~ 00:45:00
Перевод: Не требуется
Субтитры: отсутствуют--Режиссёр: Дмитрий Фикс, Сергей Репецкий, Илья Максимов--В ролях: Максим Аверин, Ольга Красько, Мария Кожевникова, Дмитрий Миллер, Евгений Галушко, Ольга Павловец, Екатерина Травова, Антон Эльдаров, Алёна Яковлева, Эммануил Виторган, Владимир Жеребцов, Лаура Кеосаян, Андриана Садковская, Александр Сетейкин, Руслан Ягудин, Анна Якунина, Игорь Петрусенко, Денис Давыдов, Серафима Низовская, Анна Кудасова, Юлия Маргулис, Кристина Кучеренко, Ольга Торощина, Андрей Бестужев (Погорельцев), Максим Щёголев, Дмитрий Арбенин, Игорь Мещерин, Владимир Довжик, Марина Могилевская, Андрей Москвичев, Константин Юшкевич, Дарья Егорова, Илья Ловкий, Леонид Тележинский, Виталий Герасимов, Владимир Демидов, Александр Дзюба, Всеволод Макаров, Марина Богатова, Алина Волощук, Ирина Сенотова, Виктор Полторацкий--Описание: Фильм приоткрывает завесу главного института скорой помощи – знаменитого Склифа. Здесь нет времени на долгие раздумья, Склиф – это внеплановые операции, и, чтобы спасти человека, принять верное решение надо здесь и сейчас.
Как никому другому, это удается главному герою, хирургу Брагину. Помимо профессиональных удач, за Брагиным тянется и слава первого ловеласа, благо мужского обаяния ему не занимать.. Видя каждый день жизнь и смерть, Брагин давно утратил сентиментальность и не утруждает себя мыслями о чужих чувствах, «великие страсти» только веселят его..--Качество видео:DVDRip
Формат видео: AVI
Видео кодек: MPEG4, XviD
Аудио кодек: AC3
Видео: 704x400 (16:9), 25.000 кадра/сек, 1600 Кбит/сек, (0.227 бит/пиксели*кадры)
Аудио: 2 канала Front: L R, 48,0 КГц, 128 Кбит/сек, 16 бит CBR[RUS] -- --

MediaInfo

Общее
Полное имя : E:\тест\Склифосовский (Склиф) (2012)_DVDRip\Склифосовский (Склиф). Серия 01 (2012).avi
Формат : AVI
Формат/Информация : Audio Video Interleave
Размер файла : 701 Мбайт
Продолжительность : 44 м.
Общий поток : 2181 Кбит/сек
Программа кодирования : VirtualDubMod 1.5.10.3 | www.virtualdub-fr.org || (build 2550/release)
Библиотека кодирования : VirtualDubMod build 2550/release
Видео
Идентификатор : 0
Формат : MPEG-4 Visual
Профиль формата : Advanced Simple@L5
Параметр BVOP формата : 1
Параметр QPel формата : Нет
Параметр GMC формата : Без точки перехода
Параметр матрицы формата : Выборочная
Идентификатор кодека : XVID
Идентификатор кодека/Подсказка : XviD
Продолжительность : 44 м.
Битрейт : 1980 Кбит/сек
Ширина : 720 пикселей
Высота : 400 пикселей
Соотношение сторон : 16:9
Частота кадров : 25,000 кадров/сек
Цветовое пространство : YUV
Субдискретизация насыщенности : 4:2:0
Битовая глубина : 8 бит
Тип развёртки : Прогрессивная
Метод сжатия : С потерями
Бит/(Пиксели*Кадры) : 0.275
Размер потока : 636 Мбайт (91%)
Библиотека кодирования : XviD 65
Аудио
Идентификатор : 1
Формат : AC-3
Формат/Информация : Audio Coding 3
Расширение режима : CM (complete main)
Параметр Endianness формата : Big
Идентификатор кодека : 2000
Продолжительность : 44 м.
Вид битрейта : Постоянный
Битрейт : 192 Кбит/сек
Каналы : 2 канала
Расположение каналов : Front: L R
Частота : 48,0 КГц
Битовая глубина : 16 бит
Метод сжатия : С потерями
Размер потока : 61,7 Мбайт (9%)
Выравнивание : Разделение по промежуткам
Продолжительность промежутка : 40 мс. (1,00 видеокадр)
Время предзагрузки промежутка : 500 мс.

Скриншоты


_________________
[Торрент-статистика]
[Профиль]  [ЛС] 
Показать сообщения:    
Ответить на тему

Текущее время: Сегодня 10:52

Часовой пояс: GMT + 4



Вы не можете начинать темы
Вы не можете отвечать на сообщения
Вы не можете редактировать свои сообщения
Вы не можете удалять свои сообщения
Вы не можете голосовать в опросах
Вы не можете прикреплять файлы к сообщениям
Вы не можете скачивать файлы