Оттепель / Серии: 1-12 из 12 (Валерий Тодоровский) [2013, Россия, драма, BDRip 400p] [Лицензия]

Ответить на тему
 
Автор
Сообщение

TiZAr ®

Пол:

Стаж: 3 года 3 месяца

Сообщений: 836

Репутация: 1157 [+] [-]

Откуда: Россия

Пост 13-Апр-2014 22:33

[Цитировать] 

Оттепель -Страна: Россия / Мармот-фильм
Жанр: драма
Год выпуска: 2013
Продолжительность: 01:12:12 + 00:55:29 + 00:53:57 + 00:53:10 + 00:54:45 + 00:53:34 + 00:54:41 + 00:54:28 + 00:54:00 + 00:55:33 + 00:53:16 + 01:06:19
Перевод: не требуется
Cубтитры: нет
Оригинальная аудиодорожка: русский
Режиссер: Валерий Тодоровский
В ролях:
Евгений Цыганов, Александр Яценко, Анна Чиповская, Виктория Исакова, Михаил Ефремов, Светлана Колпакова, Яна Сексте, Нина Дворжецкая, Павел Деревянко, Евгений Волоцкий...
Описание:
Студия «Мосфильм», 1961 год. Виктор Хрусталев — молодой талантливый оператор. Однажды он выпивал со своим другом-сценаристом Костиком в общаге ВГИКа. И нужно же было такому случиться: Костя выпал из окна и погиб. После его смерти он обнаруживает сценарий, который не был в свое время утвержден, и понимает, что это совершенно чумовая вещь. Он мечтает снять по этому сценарию фильм.
На похоронах он встречается с режиссером Егором Мячиным. И вскоре им подвернулась возможность вместе поучаствовать на съемках картины под названием «Девушка и бригадир». Присутствует в картине и любовная интрига. Виктор и Егор поочередно встречаются со студенткой химфака МГУ Марьяной, которая попадает на их же картину в качестве главной актрисы. Чтобы показать колорит тех времен, в завершении каждой серии звучат стихи и песни той эпохи.-
Качество: BDRip 400p
Формат: AVI
Видео: 720x400 (16:8), 25.000 fps, XViD, ~1340 kbps avg, 0.186 bit/pix
Аудио: Russian: 48 kHz, Dolby AC3, 2 ch, 192 kbps Const
Релиз от:

MediaInfo

Код:
Общее
Полное имя                               : Ottepel.2013.BDRip._[New-Team]_by_avproh\01.avi
Формат                                   : AVI
Формат/Информация                        : Audio Video Interleave
Размер файла                             : 797 Мбайт
Продолжительность                        : 1 ч. 12 м.
Общий поток                              : 1543 Кбит/сек
Программа кодирования                    : VirtualDubMod 1.5.10.3 | www.virtualdub-fr.org || (build 2550/release)
Библиотека кодирования                   : VirtualDubMod build 2550/release
Видео
Идентификатор                            : 0
Формат                                   : MPEG-4 Visual
Профиль формата                          : Advanced Simple@L5
Параметр BVOP формата                    : 1
Параметр QPel формата                    : Нет
Параметр GMC формата                     : Без точки перехода
Параметр матрицы формата                 : Выборочная
Идентификатор кодека                     : XVID
Идентификатор кодека/Подсказка           : XviD
Продолжительность                        : 1 ч. 12 м.
Битрейт                                  : 1341 Кбит/сек
Ширина                                   : 720 пикселей
Высота                                   : 400 пикселей
Соотношение сторон                       : 16:9
Частота кадров                           : 25,000 кадров/сек
Цветовое пространство                    : YUV
Субдискретизация насыщенности            : 4:2:0
Битовая глубина                          : 8 бит
Тип развёртки                            : Прогрессивная
Метод сжатия                             : С потерями
Бит/(Пиксели*Кадры)                      : 0.186
Размер потока                            : 693 Мбайт (87%)
Библиотека кодирования                   : XviD 73
Аудио
Идентификатор                            : 1
Формат                                   : AC-3
Формат/Информация                        : Audio Coding 3
Расширение режима                        : CM (complete main)
Параметр Endianness формата              : Big
Идентификатор кодека                     : 2000
Продолжительность                        : 1 ч. 12 м.
Вид битрейта                             : Постоянный
Битрейт                                  : 192 Кбит/сек
Каналы                                   : 2 канала
Расположение каналов                     : Front: L R
Частота                                  : 48,0 КГц
Битовая глубина                          : 16 бит
Метод сжатия                             : С потерями
Размер потока                            : 99,2 Мбайт (12%)
Выравнивание                             : Разделение по промежуткам
Продолжительность промежутка             : 40  мс. (1,00 видеокадр)
Время предзагрузки промежутка            : 500  мс.

Скриншоты:


_________________
Не стоит обращать внимания на отсутствие сидов на моих раздачах. Все мои релизы мультитрекерные - нет сидов, включите DHT.
За релизами в HD качестве обращайтесь в личку, либо отписывайтесь в теме.
[Торрент-статистика]
[Профиль]  [ЛС] 
Показать сообщения:    
Ответить на тему

Текущее время: Сегодня 10:05

Часовой пояс: GMT + 4



Вы не можете начинать темы
Вы не можете отвечать на сообщения
Вы не можете редактировать свои сообщения
Вы не можете удалять свои сообщения
Вы не можете голосовать в опросах
Вы не можете прикреплять файлы к сообщениям
Вы не можете скачивать файлы