Дикий 4 / Сезон: 4 / Серия 1-32 из 32 (Артем Мазунов) [2014 г., Детектив, боевик, криминал, SATRip]

Ответить на тему
 
Автор
Сообщение

awk05 ®

Пол:

Стаж: 4 года 5 месяцев

Сообщений: 1352

Репутация: 275 [+] [-]

Откуда: Западная Украина Ривне

Пост 24-Мар-2014 20:05

[Цитировать] 

-- Дикий 4 «Как обычно... один против всех»-- Год выпуска: 2014
Выпущено: Россия, "Студия Анкор", НТВ
Жанр: Детектив, боевик, криминал
Сезон/Серия: Сезон:4 /Серия 1-32 из 32
Продолжительность: 32 x ~ 00:46:53
Перевод: Не требуется
Субтитры: отсутствуют--Режиссер: Артем Мазунов--В ролях: Игорь Лифанов, Мария Баева, Артём Мазунов, Игорь Поселенов, Дмитрий Грачев (II), Дмитрий Митюрич, Александр Кудинов, Павел Костик, Олег Масленников-Войтов, Наталья Тетенова, Галина Анисимова (II), Олег Филипчик, Борис Покровский, Филипп Васильев, Сергей Пиоро, Максим Артамонов, Максим Туранцев, Антон Шурцов, Виталий Кулаков, Алёна Ныркова, Михаил Хмуров, Юлия Майборода, Олег Гущин, Антон Колесников, Дмитрий Исаев, Игорь Миркурбанов, Александр Носик, Азиз Бейшеналиев, Лилия Мэй, Олег Васильков, Владимир Стержаков, Павел Сметанкин, Иван Агапов, Сергей Быстрицкий, Александр Кузнецов, Михаил Водзуми, Вадим Медведев (II), Александр Лойе, Илья Хвостиков, Дмитрий Артаев, Владимир Малков--Описание: Александр Диченко работает опером. За его жесткий характер сослуживцы и преступники дали ему прозвище – Дикий. Александр один воспитывает дочь и не предпочитает все свои проблемы, как дома, так и на работе решать самостоятельно, он настоящий одиночка.
Его уважают коллеги, прислушиваются к его мнению, преступники дрожат, только лишь при одном упоминании о нём, и только лишь руководство недовольно его работой, считая, что он часто перегибает палку. Однако, высокая раскрываемость заставляют начальство закрывать глаза на недисциплинированное поведение.
Но после того как Дикий в одиночку расправился с целой бандой, его переводят из Москвы в небольшой городок Вышнегорск. Здесь преступный мир давно сотрудничает с коррумпированными властями. И только одному Дикому такая ситуация явно не по душе…--Качество видео:SATRip
Формат видео: AVI
Видео кодек: MPEG4, XviD
Аудио кодек: MP3
Видео: 720x448 (1.607), 25.000 кадра/сек, 1 794 Кбит/сек, 0.223 Бит/(Пиксели*Кадры)
Аудио: 2 канала Front: L R, 48,0 КГц, 128 Кбит/сек, 16 бит CBR [ENG]-- --

MediaInfo

Общее
Полное имя : E:\СЕРИАЛЫ\Dikiy\Dikij-4.2014.SATRip\Dikij-4.01.2014.SATRip.avi
Формат : AVI
Формат/Информация : Audio Video Interleave
Размер файла : 611 Мбайт
Продолжительность : 44 м.
Общий поток : 1932 Кбит/сек
Программа кодирования : VirtualDubMod 1.5.10.2 (build 2540/release)
Библиотека кодирования : VirtualDub build 32507/release
Видео
Идентификатор : 0
Формат : MPEG-4 Visual
Профиль формата : Advanced Simple@L5
Параметр BVOP формата : 2
Параметр QPel формата : Нет
Параметр GMC формата : Без точки перехода
Параметр матрицы формата : Default (MPEG)
Идентификатор кодека : XVID
Идентификатор кодека/Подсказка : XviD
Продолжительность : 44 м.
Битрейт : 1794 Кбит/сек
Ширина : 720 пикселей
Высота : 448 пикселей
Соотношение сторон : 16:10
Частота кадров : 25,000 кадров/сек
Цветовое пространство : YUV
Субдискретизация насыщенности : 4:2:0
Битовая глубина : 8 бит
Тип развёртки : Прогрессивная
Метод сжатия : С потерями
Бит/(Пиксели*Кадры) : 0.223
Размер потока : 567 Мбайт (93%)
Библиотека кодирования : XviD 64
Аудио
Идентификатор : 1
Формат : MPEG Audio
Версия формата : Version 1
Профиль формата : Layer 3
Режим : Joint stereo
Идентификатор кодека : 55
Идентификатор кодека/Подсказка : MP3
Продолжительность : 44 м.
Вид битрейта : Постоянный
Битрейт : 128 Кбит/сек
Каналы : 2 канала
Частота : 48,0 КГц
Метод сжатия : С потерями
Размер потока : 40,4 Мбайт (7%)
Выравнивание : Соединение по промежуткам
Продолжительность промежутка : 40 мс. (1,00 видеокадр)
Время предзагрузки промежутка : 504 мс.

Скриншоты





_________________
[Торрент-статистика]
[Профиль]  [ЛС] 
Показать сообщения:    
Ответить на тему

Текущее время: Сегодня 10:55

Часовой пояс: GMT + 4



Вы не можете начинать темы
Вы не можете отвечать на сообщения
Вы не можете редактировать свои сообщения
Вы не можете удалять свои сообщения
Вы не можете голосовать в опросах
Вы не можете прикреплять файлы к сообщениям
Вы не можете скачивать файлы