Следователь Протасов Сезон: 1 / 1-16 серий из 16 (Константин Фролов, Константин Смирнов) [2014 г., Детектив, SATRip]

Ответить на тему
 
Автор
Сообщение

awk05 ®

Пол:

Стаж: 4 года 5 месяцев

Сообщений: 1352

Репутация: 275 [+] [-]

Откуда: Западная Украина Ривне

Пост 17-Мар-2014 15:52

[Цитировать] 

--Следователь Протасов -- Год выпуска: 2014 г.
Страна: Россия КиноАтелье
Жанр: Детектив
Сезон/Серия: 1-16 серий из 16
Продолжительность: 16 x ~ 00:47:00
Cубтитры: нет--Режиссер: Константин Фролов, Константин Смирнов--В ролях: Вячеслав Разбегаев, Анатолий Котенёв, Наталия Быстрова, Юлия Такшина, Игорь Денисов, Олег Радкевич, Сергей Широчин, Игорь Сеньков, Олеся Грибок, Татьяна Чердынцева, Анна Соломянская, Андрей Милюхин--Описание: Елисей Протасов, которого, благодаря редкому имени и крутому характеру, друзья называют Лешим. Недруги же называют Лисом. Протасов работает следователем по особо важным делам в областной прокуратуре. Он старший советник юстиции, по званию - полковник. Бескомпромиссный, упрямый и проницательный Елисей Протасов вполне мог бы стать идеальным мужчиной, но этому мешает его тяжелый характер.--Качество видео:SATRip
Формат видео: AVI
Видео кодек: MPEG4, DivX 5
Аудио кодек: MP3
Видео: 720x384 (1.875), 23,976 кадра/сек, 1501 Кбит/сек, 0.217 Бит/(Пиксели*Кадры)
Аудио: 2 канала Front: L R, 48,0 КГц, 128 Кбит/сек, 16 бит CBR [RUS] -- --

MediaInfo

Общее
Полное имя : G:\Следователь Протасов SATRip XviD\Следователь Протасов 01_серия_DivX.avi
Формат : AVI
Формат/Информация : Audio Video Interleave
Размер файла : 562 Мбайт
Продолжительность : 47 м.
Общий поток : 1638 Кбит/сек
Библиотека кодирования : VirtualDub build 35491/release
Видео
Идентификатор : 0
Формат : MPEG-4 Visual
Параметр BVOP формата : 1
Параметр QPel формата : Нет
Параметр GMC формата : Без точки перехода
Параметр матрицы формата : Default (H.263)
Режим смешивания : Сжатый битовый поток
Идентификатор кодека : DX50
Идентификатор кодека/Подсказка : DivX 5
Продолжительность : 47 м.
Битрейт : 1501 Кбит/сек
Ширина : 720 пикселей
Высота : 384 пикселя
Соотношение сторон : 1,85:1
Частота кадров : 25,000 кадров/сек
Цветовое пространство : YUV
Субдискретизация насыщенности : 4:2:0
Битовая глубина : 8 бит
Тип развёртки : Прогрессивная
Метод сжатия : С потерями
Бит/(Пиксели*Кадры) : 0.217
Размер потока : 515 Мбайт (92%)
Библиотека кодирования : DivX 6.8.5 (UTC 2009-08-20)
Аудио
Идентификатор : 1
Формат : MPEG Audio
Версия формата : Version 1
Профиль формата : Layer 3
Режим : Joint stereo
Расширение режима : MS Stereo
Идентификатор кодека : 55
Идентификатор кодека/Подсказка : MP3
Продолжительность : 47 м.
Вид битрейта : Постоянный
Битрейт : 128 Кбит/сек
Каналы : 2 канала
Частота : 48,0 КГц
Метод сжатия : С потерями
Размер потока : 43,9 Мбайт (8%)
Выравнивание : Разделение по промежуткам
Продолжительность промежутка : 40 мс. (1,00 видеокадр)
Время предзагрузки промежутка : 500 мс.

_________________
[Торрент-статистика]
[Профиль]  [ЛС] 
Показать сообщения:    
Ответить на тему

Текущее время: Сегодня 06:22

Часовой пояс: GMT + 4



Вы не можете начинать темы
Вы не можете отвечать на сообщения
Вы не можете редактировать свои сообщения
Вы не можете удалять свои сообщения
Вы не можете голосовать в опросах
Вы не можете прикреплять файлы к сообщениям
Вы не можете скачивать файлы