Любовь в большом городе 3 / Ljubov’ v bol’shom gorode 3 / Серия 1-8 из 8 (Марюс Вайсберг, Дэвид Додсон) [2014 г.,комедия, HDTVRip]

Ответить на тему
 
Автор
Сообщение

awk05 ®

Пол:

Стаж: 4 года 5 месяцев

Сообщений: 1352

Репутация: 275 [+] [-]

Откуда: Западная Украина Ривне

Пост 13-Мар-2014 04:47

[Цитировать] 

--Любовь в большом городе 3 — Ljubov’ v bol’shom gorode 3-- Год выпуска: 2014
Страна: Россия
Жанр: комедия
Сезон/Серия: Сезон:1 /Серия 1-8 из 8
Продолжительность: 8 х 00:44:00
Субтитры: отсутствуют--Режиссер: Марюс Вайсберг, Дэвид Додсон--В ролях: Алексей Чадов, Владимир Зеленский, Светлана Ходченкова, Вера Брежнева, Вилле Хаапасало, Анастасия Задорожная, Михаил Ефремов, Филипп Киркоров, Леонид Ярмольник--Описание Сериала: Спустя пять лет жизнь уже знакомых героев наполнилась новыми переживаниями и эмоциями. На их пути встречались периоды застоя и неукротимой страсти, любви и совместных переживаний. Главное, что все они сумели пройти через эти неурядицы и все-таки сохранили то главное, что было в их жизни. Более того, теперь в ней появились главные цветы – любимые детки, которых нужно всему учить и воспитывать. Сериал «Любовь в большом городе» третий сезон стал еще лучше, в нем появились новые эмоции и характерные черты, которые смогут освежить старые воспоминания и привнести в жизнь нечто новое, светлое и приятное. Смотреть эту киноленту в онлайн лучше всего на нашем интернет сайте.
Все они столкнутся с новыми испытаниями, ведь дети наполнят жизнь совершенно незнакомыми эмоциями. На голову обрушатся очередные трудности и семейные кризисы. Но за это время наши герои научились преодолевать даже самые непростые невзгоды, поэтому должны справиться и в этот раз. Главное, что они остаются дружной компанией, каждый член которой готов прийти на помощь друг другу, поэтому и проблемы покажутся не такими уж и глобальными. За этим нужно понаблюдать со стороны, ведь на словах сложно передавать человеческие эмоции.
В жизни каждого отца, рано или поздно наступает момент, когда жена улетает на заслуженный отдых, а он остается один на один с собственным ребенком. Казалось бы — ничего сложного! Также подумали Игорь, Артем и Сауна, даже не подозревая, какой «водопад» приключений накроет их с головой. Измученные «прелестями» отцовства, парни встречают своего старого приятеля Святого Валентина. Снимая стресс за бутылочкой виски, ребята в шутку мечтают о том, чтобы их дети поскорее стали взрослыми. А на утро, шокированные папаши понимают — их мечта сбылась и теперь они на собственной шкуре поймут, что значит поговорка: Большие дети — большие проблемы…--Качество видео:HDTVRip
Формат видео: AVI
Видео кодек: MPEG4, XviD
Аудио кодек: AC3
Видео: 720x400 (16:9), 25.000 кадра/сек, 1 568 Кбит/сек, 0.218 Бит/(Пиксели*Кадры)
Аудио: 2 канала Front: L R, 48,0 КГц, 192 Кбит/сек, 16 бит CBR[RUS] -- --

MediaInfo

Общее
Полное имя : E:\Сериалы новые\Lyubov.v.Bolshom.Gorode-3.HDTVRip.RG.Russkie.serialy.&.Files-x\Lyubov.v.Bolshom.Gorode-3.(01.seriya.iz.8).HDTVRip.RG.Russkie.serialy.&.Files-x.avi
Формат : AVI
Формат/Информация : Audio Video Interleave
Размер файла : 550 Мбайт
Продолжительность : 43 м.
Общий поток : 1770 Кбит/сек
Программа кодирования : VirtualDubMod 1.5.10.3 | www.virtualdub-fr.org || (build 2550/release)
Библиотека кодирования : VirtualDubMod build 2550/release
Видео
Идентификатор : 0
Формат : MPEG-4 Visual
Профиль формата : Advanced Simple@L5
Параметр BVOP формата : 1
Параметр QPel формата : Нет
Параметр GMC формата : Без точки перехода
Параметр матрицы формата : Default (H.263)
Идентификатор кодека : XVID
Идентификатор кодека/Подсказка : XviD
Продолжительность : 43 м.
Битрейт : 1568 Кбит/сек
Ширина : 720 пикселей
Высота : 400 пикселей
Соотношение сторон : 16:9
Частота кадров : 25,000 кадров/сек
Цветовое пространство : YUV
Субдискретизация насыщенности : 4:2:0
Битовая глубина : 8 бит
Тип развёртки : Прогрессивная
Метод сжатия : С потерями
Бит/(Пиксели*Кадры) : 0.218
Размер потока : 487 Мбайт (89%)
Библиотека кодирования : XviD 1.2.1 (UTC 2008-12-04)
Аудио
Идентификатор : 1
Формат : AC-3
Формат/Информация : Audio Coding 3
Расширение режима : CM (complete main)
Параметр Endianness формата : Big
Идентификатор кодека : 2000
Продолжительность : 43 м.
Вид битрейта : Постоянный
Битрейт : 192 Кбит/сек
Каналы : 2 канала
Расположение каналов : Front: L R
Частота : 48,0 КГц
Битовая глубина : 16 бит
Метод сжатия : С потерями
Размер потока : 59,7 Мбайт (11%)
Выравнивание : Разделение по промежуткам
Продолжительность промежутка : 40 мс. (1,00 видеокадр)
Время предзагрузки промежутка : 500 мс.

_________________
[Торрент-статистика]
[Профиль]  [ЛС] 
Показать сообщения:    
Ответить на тему

Текущее время: Сегодня 04:17

Часовой пояс: GMT + 4



Вы не можете начинать темы
Вы не можете отвечать на сообщения
Вы не можете редактировать свои сообщения
Вы не можете удалять свои сообщения
Вы не можете голосовать в опросах
Вы не можете прикреплять файлы к сообщениям
Вы не можете скачивать файлы