Цветы зла / Серии: 1-4 из 4(Анна Легчилова) [2013, Психологический детектив, HDTVRip 720p]

Ответить на тему
 
Автор
Сообщение

awk05 ®

Пол:

Стаж: 4 года 5 месяцев

Сообщений: 1352

Репутация: 275 [+] [-]

Откуда: Западная Украина Ривне

Пост 12-Мар-2014 16:09

[Цитировать] 

--Цветы зла --Год выпуска: 2013
Производство: Россия, «Мосфильм», «12 А»
Жанр: Психологический детектив
Сезон/Серия: 01-04 из 04
Продолжительность: 4 х ~00:45:00
Субтитры: нет--Режиссёр: Анна Легчилова--В ролях: Светлана Антонова, Дмитрий Ульянов, Александр Устюгов, Мария Звонарева, Дмитрий Исаев, Сергей Чирков, Юрий Ваксман, Анфиса Черных и другие.--Описание: Небольшой провинциальный городок потрясает серия жестоких убийств. Рядом с некоторыми убитыми женщинами находят странные бусинки и стихи французского поэта Шарля Бодлера из знаменитого сборника "Цветы зла". Полиции никак не удается выйти на след преступника. К расследованию подключается опытный психолог Ирина Елисеева. Ей предстоит составить психологический портрет преступника и разгадать его зловещий план. Приступив к расследованию, Ирина быстро убеждается, что вычислить серийного убийцу будет нелегко. Он опасен, хитер и не оставляет никаких следов. К тому же между убитыми женщинами нет никакого сходства. Вскоре в жизни Ирины происходит новый поворот. На встрече выпускников она неожиданно сталкивается со своей первою любовью и отцом своей дочери - известным психологом Валерием. Он недавно вернулся из Германии и теперь надеется наладить с ними отношения. И хотя Ирина не готова менять свою жизнь, она с ужасом понимает, что чувства к бывшему возлюбленному так и не прошли...--Качество: HDTVRip 720p
Формат: MKV
Видео кодек: AVC (High@L4.1)
Аудио кодек: MPEG Audio
Видео: AVC, 1280x720 (16:9), 25.000 fps, 3 850 Kbps (0.167 bit/pixel)
Аудио: MP2, 48.0 KHz, 2 ch, 192 Kbps, CBR-- --

MediaInfo

Общее
Уникальный идентификатор : 212048079157722170658799238520215630130 (0x9F86F97ACBB9869CBBAD4851478AF132)
Полное имя : E:\Сериалы новые\Цветы зла HDTVRip 720 p\Cvety.zla 01_серия_HDTVRip_720p_by_Серый1779.mkv
Формат : Matroska
Версия формата : Version 2
Размер файла : 1,26 Гбайт
Продолжительность : 44 м.
Общий поток : 4033 Кбит/сек
Дата кодирования : UTC 2013-05-10 06:14:30
Программа кодирования : mkvmerge v4.9.1 ('Ich will') built on Sep 21 2011 17:48:11
Библиотека кодирования : libebml v1.2.1 + libmatroska v1.2.0
Видео
Идентификатор : 1
Формат : AVC
Формат/Информация : Advanced Video Codec
Профиль формата : High@L4.1
Параметр CABAC формата : Да
Параметр ReFrames формата : 9 кадров
Идентификатор кодека : V_MPEG4/ISO/AVC
Продолжительность : 44 м.
Битрейт : 3850 Кбит/сек
Ширина : 1280 пикселей
Высота : 720 пикселей
Соотношение сторон : 16:9
Режим частоты кадров : Постоянный
Частота кадров : 25,000 кадров/сек
Цветовое пространство : YUV
Субдискретизация насыщенности : 4:2:0
Битовая глубина : 8 бит
Тип развёртки : Прогрессивная
Бит/(Пиксели*Кадры) : 0.167
Размер потока : 1,18 Гбайт (93%)
Библиотека кодирования : x264 core 118 r2085 8a62835
Настройки программы : cabac=1 / ref=9 / deblock=1:-3:-3 / analyse=0x3:0x133 / me=umh / subme=9 / psy=1 / psy_rd=1.00:0.15 / mixed_ref=1 / me_range=32 / chroma_me=1 / trellis=2 / 8x8dct=1 / cqm=0 / deadzone=21,11 / fast_pskip=0 / chroma_qp_offset=-3 / threads=3 / sliced_threads=0 / nr=0 / decimate=1 / interlaced=0 / bluray_compat=0 / constrained_intra=0 / bframes=9 / b_pyramid=2 / b_adapt=2 / b_bias=0 / direct=3 / weightb=1 / open_gop=0 / weightp=2 / keyint=250 / keyint_min=25 / scenecut=40 / intra_refresh=0 / rc=2pass / mbtree=0 / bitrate=3850 / ratetol=1.0 / qcomp=0.60 / qpmin=0 / qpmax=69 / qpstep=4 / cplxblur=20.0 / qblur=0.5 / ip_ratio=1.40 / pb_ratio=1.30 / aq=2:0.70
Default : Да
Forced : Нет
Основные цвета : BT.709
Характеристики трансфера : BT.709
Коэффициенты матрицы : BT.709
Аудио
Идентификатор : 2
Формат : MPEG Audio
Версия формата : Version 1
Профиль формата : Layer 2
Идентификатор кодека : A_MPEG/L2
Идентификатор кодека/Подсказка : MP2
Продолжительность : 44 м.
Вид битрейта : Постоянный
Битрейт : 192 Кбит/сек
Каналы : 2 канала
Частота : 48,0 КГц
Метод сжатия : С потерями
Размер потока : 61,5 Мбайт (5%)
Default : Да
Forced : Нет

Скриншоты


_________________
[Торрент-статистика]
[Профиль]  [ЛС] 
Показать сообщения:    
Ответить на тему

Текущее время: Сегодня 08:55

Часовой пояс: GMT + 4



Вы не можете начинать темы
Вы не можете отвечать на сообщения
Вы не можете редактировать свои сообщения
Вы не можете удалять свои сообщения
Вы не можете голосовать в опросах
Вы не можете прикреплять файлы к сообщениям
Вы не можете скачивать файлы