Бессонница / Сезон: 1 / Серии: 1-16 из 16 (Андрей Мармонтов) [2014, боевик, WEB-DL 720p]

Ответить на тему
 
Автор
Сообщение

awk05 ®

Пол:

Стаж: 4 года 5 месяцев

Сообщений: 1352

Репутация: 275 [+] [-]

Откуда: Западная Украина Ривне

Пост 28-Фев-2014 15:27

[Цитировать] 

--Бессонница-- Год выпуска: 2014
Производство: Россия, DixiMedia
Жанр: боевик
Сезон/Серия: Сезон:1 /Серия 1-16 из 16
Продолжительность: 16 x 00:44:22
Субтитры: нет--Режиссёр: Андрей Мармонтов--В ролях: Юлия Юрченко, Александр Константинов, Анна Антонова, Мачей Штур, Эдуард Флёров, Владислав Павлов, Максим Щеголев, Александр Сетейкин, Алексей Матошин, Вероника Вернадская, Юлия Галкина, Андрей Курилов, Виктория Фишер, Дарья Повереннова, Виктор Проскурин, Алексей Фаддеев, Дмитрий Файнштейн, Дмитрий Астрахан, Елена Коренева, Михаил Хмуров, Михаил Мелин, Анастасия Новикова, Алла Музалёва, Леся Кудряшова, Леонид Архангельский, Елена Мелехова, Юрий Пылаев, Алексей Корниенко, Александр Левин--Описание: Без сна человеческий организм не может существовать бесконечно. В одном из подпольных казино, больше похожем на тайный клуб, играют только самые богатые, самые влиятельные и… самые пресыщенные. Те, кто готов ставить целые состояния на красное, если это красное — кровь. Для них и был создан новый тотализатор, основанный на игре «Бессонница», который проводится всего раз в год. Клиенты казино, делая свои ставки, рискуют миллионами, но игроки рискуют гораздо большим.
Из 10 игроков последний не заснувший и оставшийся в живых — победитель. И нельзя сказать, что участие в игре — дело полностью добровольное. Так, один из участников попадает в игру, нарушив закон. Задержавшие его полицейские дают ему право выбора: надолго оказаться в тюрьме или рискнуть и получить свободу.--Качество: WEB-DL 720p
Формат: MKV
Видео кодек: AVC (High@L3.0)
Аудио кодек: AC-3
Видео: 1280x720 (16:9), 25,000 кадра/сек, 3 100 Кбит/сек, 0.134 Бит/(Пиксели*Кадры)
Аудио: 2 канала, Front: L R, 48 КГц, 192 Кбит/сек, 16 бит CBR[RUS]-- --

MI

Общее
Уникальный идентификатор : 189607449963878668722206195132204286350 (0x8EA51109D7AAB3C891D713DB80FB818E)
Полное имя : E:\Сериалы новые\Bessonnica.2014.WEB-DL.720p от HitWay\Bessonnica.(02.seriya).2014.WEB-DL.720p.Alexey724.mkv
Формат : Matroska
Версия формата : Version 4 / Version 2
Размер файла : 1,01 Гбайт
Продолжительность : 44 м.
Общий поток : 3266 Кбит/сек
Дата кодирования : UTC 2014-03-02 11:18:45
Программа кодирования : mkvmerge v6.1.0 ('Old Devil') built on Apr 20 2013 10:07:04
Библиотека кодирования : libebml v1.3.0 + libmatroska v1.4.0
Видео
Идентификатор : 1
Формат : AVC
Формат/Информация : Advanced Video Codec
Профиль формата : Main@L3.1
Параметр CABAC формата : Да
Параметр ReFrames формата : 1 кадр
Идентификатор кодека : V_MPEG4/ISO/AVC
Продолжительность : 44 м.
Битрейт : 3100 Кбит/сек
Ширина : 1280 пикселей
Высота : 720 пикселей
Соотношение сторон : 16:9
Режим частоты кадров : Постоянный
Частота кадров : 25,000 кадров/сек
Цветовое пространство : YUV
Субдискретизация насыщенности : 4:2:0
Битовая глубина : 8 бит
Тип развёртки : Прогрессивная
Бит/(Пиксели*Кадры) : 0.135
Размер потока : 950 Мбайт (92%)
Библиотека кодирования : x264 core 129
Настройки программы : cabac=1 / ref=1 / deblock=1:0:0 / analyse=0x1:0x131 / me=dia / subme=2 / psy=1 / psy_rd=1.00:0.00 / mixed_ref=0 / me_range=16 / chroma_me=1 / trellis=0 / 8x8dct=0 / cqm=0 / deadzone=21,11 / fast_pskip=1 / chroma_qp_offset=0 / threads=2 / lookahead_threads=1 / sliced_threads=0 / nr=0 / decimate=1 / interlaced=0 / bluray_compat=0 / constrained_intra=0 / bframes=0 / weightp=2 / keyint=250 / keyint_min=25 / scenecut=40 / intra_refresh=0 / rc_lookahead=40 / rc=abr / mbtree=1 / bitrate=3100 / ratetol=1.0 / qcomp=0.60 / qpmin=10 / qpmax=51 / qpstep=4 / ip_ratio=1.41 / aq=1:1.00
Default : Да
Forced : Нет
Аудио
Идентификатор : 2
Формат : AC-3
Формат/Информация : Audio Coding 3
Расширение режима : CM (complete main)
Параметр Endianness формата : Big
Идентификатор кодека : A_AC3
Продолжительность : 44 м.
Вид битрейта : Постоянный
Битрейт : 192 Кбит/сек
Каналы : 2 канала
Расположение каналов : Front: L R
Частота : 48,0 КГц
Битовая глубина : 16 бит
Метод сжатия : С потерями
Размер потока : 60,6 Мбайт (6%)
Default : Да
Forced : Нет

Скриншоты





_________________
[Торрент-статистика]
[Профиль]  [ЛС] 
Показать сообщения:    
Ответить на тему

Текущее время: Сегодня 06:26

Часовой пояс: GMT + 4



Вы не можете начинать темы
Вы не можете отвечать на сообщения
Вы не можете редактировать свои сообщения
Вы не можете удалять свои сообщения
Вы не можете голосовать в опросах
Вы не можете прикреплять файлы к сообщениям
Вы не можете скачивать файлы