По лезвию бритвы (Вера. Надежда. Судьба) / Серии: 1-8 из 8 (Сергей Кожевников) [2014, военный фильм, драма, SATRip]

Ответить на тему
 
Автор
Сообщение

Admiral ®

Пол:

Стаж: 2 года 11 месяцев

Сообщений: 586

Репутация: 136 [+] [-]

Пост 25-Фев-2014 12:03

[Цитировать] 

--По лезвию бритвы (Вера. Надежда. Судьба)-- Год выпуска: 2014
Производство: Киностудия "Артель"
Жанр: военный фильм, драма
Продолжительность: 8 х ~ 00:55:00
Субтитры: Нет
Режиссёр: Сергей Кожевников

В ролях: Владислав Резник, Светлана Антонова, Сергей Угрюмов, Егор Баринов, Роман Богданов, Владимир Щербаков, Алексей Потапкин, Алексей Горячев, Александр Андриенко, Максим Битюков, Мария Бушмелёва, Марина Ворожищева, Виктор Фалалеев, Андрей Москвичёв, Роман Гредин, Вильма Кутавичюте, Станислав Стрелков, Александр Числов, Евгений Гусев (II), Владимир Кебин
Описание: В начале войны Николай Кузнецов был заброшен в тыл врага. За время разведывательной деятельности он лично ликвидировал 11 генералов и высокопоставленных чиновников оккупационной администрации нацистской Германии. Посмертно ему было присвоено звание Героя Советского Союза.
Фильм раскрывает психологические переживания главного героя, его внутренние конфликты и показывает осмысление им многих событий войны в период 1941-44-х годов. С одной стороны Кузнецов - убежденный советский патриот, а с другой - человек, способный до такой степени принять на себя "личину" врага, что она становится его вторым "я". По словам самого Николая Кузнецова: "Разведка - нечеловеческое дело, она калечит душу..."

-
Доп. информация: Реклама отсутствует!
-
Релиз группы::
Качество: SATRip
Формат: AVI
Видео кодек: XviD
Аудио кодек: MP3
Видео: 704x368, 25 fps, XviD, ~1444 kbps, 0.229 bit/pixel
Аудио: 48 kHz, MPEG Layer 3, 2 ch, 192 kbps

MI

Общее
Полное имя : R:\Сериалы 2014\По лезвию бритвы (Вера. Надежда. Судьба) (2014)\По лезвию бритвы (Вера. Надежда. Судьба).(01.seriya).2014.XviD.SATRip.by.simka.avi
Формат : AVI
Формат/Информация : Audio Video Interleave
Размер файла : 653 Мбайт
Продолжительность : 55 м.
Общий поток : 1645 Кбит/сек
Программа кодирования : VirtualDubModRus 1.5.10.2 (build 2542/release)
Библиотека кодирования : VirtualDubMod build 2542/release
Видео
Идентификатор : 0
Формат : MPEG-4 Visual
Профиль формата : Advanced Simple@L5
Параметр BVOP формата : 1
Параметр QPel формата : Нет
Параметр GMC формата : Без точки перехода
Параметр матрицы формата : Default (MPEG)
Идентификатор кодека : XVID
Идентификатор кодека/Подсказка : XviD
Продолжительность : 55 м.
Битрейт : 1444 Кбит/сек
Ширина : 704 пикселя
Высота : 368 пикселей
Соотношение сторон : 1,913
Частота кадров : 25,000 кадров/сек
Цветовое пространство : YUV
Субдискретизация насыщенности : 4:2:0
Битовая глубина : 8 бит
Тип развёртки : Прогрессивная
Метод сжатия : С потерями
Бит/(Пиксели*Кадры) : 0.223
Размер потока : 573 Мбайт (88%)
Библиотека кодирования : XviD 1.2.1 (UTC 2008-12-04)
Аудио
Идентификатор : 1
Формат : MPEG Audio
Версия формата : Version 1
Профиль формата : Layer 3
Режим : Joint stereo
Идентификатор кодека : 55
Идентификатор кодека/Подсказка : MP3
Продолжительность : 55 м.
Вид битрейта : Постоянный
Битрейт : 192 Кбит/сек
Каналы : 2 канала
Частота : 48,0 КГц
Метод сжатия : С потерями
Размер потока : 76,2 Мбайт (12%)
Выравнивание : Соединение по промежуткам
Продолжительность промежутка : 40 мс. (1,00 видеокадр)
Время предзагрузки промежутка : 504 мс.
Библиотека кодирования : LAME3.99r
Настройки программы : -m j -V 4 -q 2 -lowpass 18.6 -b 192

Скриншоты

Внимание! Раздача ведётся путём добавления новых выпусков

При каждом добавлении создаётся новый торрент. Чтобы начать докачку нового выпуска, пользователям необходимо сделать следующее:
● остановить скачивание;
● удалить старый торрент у себя из клиента (старые выпуски удалять не надо);
● скачать новый торрент и запустить его у себя в клиенте вместо старого, при этом указать клиенту путь в старую папку куда и должно происходить скачивание новых выпусков;
● ваш клиент при запуске должен произвести хеширование (проверку) старой папки (если не производит сам - помогите ему сделать это), и будет докачивать только те выпуски, которых у вас ещё нет. Старые выпуски при этом не удаляются, а продолжают раздаваться!, Конец фильма!
● Eсли вы уже удалили старые выпуски, то предотвратить повторную закачку старых выпусков можно, отжав галочку в соответсвующих местах при запуске нового торрента.


Последний раз редактировалось: Admiral (2014-02-28 10:43), всего редактировалось 2 раз(а)
[Торрент-статистика]
[Профиль]  [ЛС] 

Admiral ®

Пол:

Стаж: 2 года 11 месяцев

Сообщений: 586

Репутация: 136 [+] [-]

Пост 26-Фев-2014 08:56 (спустя 20 часов)

[Цитировать] 

Добавлена 3-4 серии
[Торрент-статистика]
[Профиль]  [ЛС] 

Admiral ®

Пол:

Стаж: 2 года 11 месяцев

Сообщений: 586

Репутация: 136 [+] [-]

Пост 27-Фев-2014 12:13 (спустя 1 день 3 часа)

[Цитировать] 

Добавлена 5-6 серии
[Торрент-статистика]
[Профиль]  [ЛС] 

Admiral ®

Пол:

Стаж: 2 года 11 месяцев

Сообщений: 586

Репутация: 136 [+] [-]

Пост 28-Фев-2014 10:44 (спустя 22 часа)

[Цитировать] 

Добавлена 7-8 серии
[Торрент-статистика]
[Профиль]  [ЛС] 
Показать сообщения:    
Ответить на тему

Текущее время: Сегодня 09:00

Часовой пояс: GMT + 4



Вы не можете начинать темы
Вы не можете отвечать на сообщения
Вы не можете редактировать свои сообщения
Вы не можете удалять свои сообщения
Вы не можете голосовать в опросах
Вы не можете прикреплять файлы к сообщениям
Вы не можете скачивать файлы