Шаман - 2 Сезон:1 / Серии 1-32 из 32 (Максим Кубринский, Алексей Козлов, Павел Мальков) [2014 г., криминал, драма, боевик, SATRip]

Ответить на тему
 
Автор
Сообщение

awk05 ®

Пол:

Стаж: 4 года 5 месяцев

Сообщений: 1352

Репутация: 275 [+] [-]

Откуда: Западная Украина Ривне

Пост 27-Янв-2014 17:45

[Цитировать] 

--Шаман - 2-- Год выпуска: 2014 г.
Страна: Россия
Жанр: криминал, драма, боевик
Сезон/Серия: Сезон:1 Серия 1-32 из 32
Продолжительность: 32 x 00:45:00
Cубтитры: нет--
Режиссер: Максим Кубринский, Алексей Козлов, Павел Мальков--
В ролях: Владимир Скворцов, Кирилл Щербина, Светлана Щедрина, Ирина Гершт, Андрей Зибров, Павел Гончаров, Александр Иванов, Евгений Новоселов (II), Александр Петров, Руслан Кацагаджиев, Глеб Степан Каллистов, Александр Мосолов, Егор Бакулин, Сергей Мардарь, Игорь Ботвин, Ян Цапник, Юлия Кудояр, Вячеслав Коробицин, Анастасия Венкова, Наталья Ткаченко, Александр Кудренко, Ирина Горячева, Станислав Белозеров, Михаил Лучко, Андрей Аверков, Полина Толстун, Диана Дезмари, Михаил Трясоруков, Анна Геллер, Даниил Кокин--
Описание: У Шамана по-прежнему есть коллеги, азарт и работа, а также скверный характер и отличное чувство юмора. Он все так же любвеобилен – и красотки отвечают ему взаимностью. Однако после первого сезона «Шамана» в жизни Ивана Шаманова многое поменялось – он расстался с любимой женщиной, сын поступил в Университет МВД, главный враг – Корнеев, - сидит в тюрьме. Но теперь появляется адвокат Штольц, который становится костью в горле у Шамана. Ведь у Шамана всегда была и есть своя правда по отношению к преступникам. И если нужно, Шаман преступит закон в отношении к ним, но вор, убийца или насильник будут сидеть в тюрьме. А у Штольца своя правда. Он готов идти до конца в борьбе с шамановским произволом. Однажды наступает момент, когда Штольц сам не замечает, как переходит черту в борьбе с Шаманом. Но ведь и Шаману палец в рот не клади…--
Качество: SATRip
Формат видео: AVI
Видео кодек: XviD
Аудио кодек: MP3
Видео: 720x448 (16:10), 25,000 кадра/сек, 1795 Кбит/сек, 0.223 Бит/(Пиксели*Кадры)
Аудио: 2 канала Front: L R, 48,0 КГц, 128 Кбит/сек--

MediaInfo

Общее
Полное имя : E:\Сериалы новые\Shaman-2.2013.SATRip\Shaman-2.01.2013.SATRip.avi
Формат : AVI
Формат/Информация : Audio Video Interleave
Размер файла : 621 Мбайт
Продолжительность : 44 м.
Общий поток : 1933 Кбит/сек
Программа кодирования : VirtualDubMod 1.5.10.2 (build 2540/release)
Библиотека кодирования : VirtualDub build 32507/release
Видео
Идентификатор : 0
Формат : MPEG-4 Visual
Профиль формата : Advanced Simple@L5
Параметр BVOP формата : 2
Параметр QPel формата : Нет
Параметр GMC формата : Без точки перехода
Параметр матрицы формата : Default (MPEG)
Идентификатор кодека : XVID
Идентификатор кодека/Подсказка : XviD
Продолжительность : 44 м.
Битрейт : 1795 Кбит/сек
Ширина : 720 пикселей
Высота : 448 пикселей
Соотношение сторон : 16:10
Частота кадров : 25,000 кадров/сек
Цветовое пространство : YUV
Субдискретизация насыщенности : 4:2:0
Битовая глубина : 8 бит
Тип развёртки : Прогрессивная
Метод сжатия : С потерями
Бит/(Пиксели*Кадры) : 0.223
Размер потока : 577 Мбайт (93%)
Библиотека кодирования : XviD 64
Аудио
Идентификатор : 1
Формат : MPEG Audio
Версия формата : Version 1
Профиль формата : Layer 3
Режим : Joint stereo
Идентификатор кодека : 55
Идентификатор кодека/Подсказка : MP3
Продолжительность : 44 м.
Вид битрейта : Постоянный
Битрейт : 128 Кбит/сек
Каналы : 2 канала
Частота : 48,0 КГц
Метод сжатия : С потерями
Размер потока : 41,1 Мбайт (7%)
Выравнивание : Соединение по промежуткам
Продолжительность промежутка : 40 мс. (1,00 видеокадр)
Время предзагрузки промежутка : 504 мс.

_________________


Последний раз редактировалось: awk05 (2014-02-20 18:03), всего редактировалось 5 раз(а)
[Торрент-статистика]
[Профиль]  [ЛС] 

arabella

Стаж: 2 года 10 месяцев

Сообщений: 13

Репутация: 33 [+] [-]

Пост 12-Фев-2014 19:57 (спустя 16 дней)

[Цитировать] 

добрый сериал.....
[Торрент-статистика]
[Профиль]  [ЛС] 

mr. vigo

Стаж: 2 года 9 месяцев

Сообщений: 1

Репутация: 0 [+] [-]

Пост 23-Фев-2014 12:38 (спустя 10 дней)

[Цитировать] 

Раздача риперовская чтоль?
[Торрент-статистика]
[Профиль]  [ЛС] 

ArtZak

Пол:

Стаж: 5 лет 1 месяц

Сообщений: 3008

Репутация: 1363 [+] [-]

Откуда: Россия

Пост 23-Фев-2014 17:22 (спустя 4 часа)

[Цитировать] 

43908Раздача риперовская чтоль?
Что это значит - объяснитесь проще!
[Торрент-статистика]
[Профиль]  [ЛС] 

awk05 ®

Пол:

Стаж: 4 года 5 месяцев

Сообщений: 1352

Репутация: 275 [+] [-]

Откуда: Западная Украина Ривне

Пост 23-Фев-2014 23:14 (спустя 5 часов)

[Цитировать] 

43908Раздача риперовская чтоль?
это как? обоснуй

_________________
[Торрент-статистика]
[Профиль]  [ЛС] 

Волк

Пол:

Стаж: 5 лет 1 месяц

Сообщений: 689

Репутация: 292 [+] [-]

Откуда: Армения

Пост 23-Фев-2014 23:21 (спустя 7 минут)

[Цитировать] 

ArtZak, awk05, Он имеет виду какие риперы создали ево!!!
mr. vigo, Не думаю что риперская рука тут касалась.
[Торрент-статистика]
[Профиль]  [ЛС] 

ArtZak

Пол:

Стаж: 5 лет 1 месяц

Сообщений: 3008

Репутация: 1363 [+] [-]

Откуда: Россия

Пост 24-Фев-2014 00:15 (спустя 54 минуты)

[Цитировать] 

awk05, Волк, я предполагаю, что речь идет о релиз-группе - РиперАМ...
Вот их лого:
-их рипы обычно нашпигованы какой-нибудь рекламой... что не всем нравится. Мне тоже, например!
[Торрент-статистика]
[Профиль]  [ЛС] 
Показать сообщения:    
Ответить на тему

Текущее время: Сегодня 18:23

Часовой пояс: GMT + 4



Вы не можете начинать темы
Вы не можете отвечать на сообщения
Вы не можете редактировать свои сообщения
Вы не можете удалять свои сообщения
Вы не можете голосовать в опросах
Вы не можете прикреплять файлы к сообщениям
Вы не можете скачивать файлы