Я отменяю смерть / Вернуть из мертвых / Сезон: 1 / Серии 1-24 серии из 24 (Денис Скворцов, Павел Мальков) [2012 г., Мистика, фантастика, драма, DVB]

Ответить на тему
 
Автор
Сообщение

awk05 ®

Пол:

Стаж: 4 года 5 месяцев

Сообщений: 1352

Репутация: 275 [+] [-]

Откуда: Западная Украина Ривне

Пост 14-Янв-2014 23:16

[Цитировать] 

--Я отменяю смерть /Вернуть из мертвых-- Год выпуска: 2012
Страна: Россия, Production films по заказу телеканала ТВ3
Жанр: Мистика, фантастика, драма
Сезон/Серия: Сезон:1 /Серия 1-24 из 24
Продолжительность: 24 х ~00:46:00
Субтитры: отсутствуют--Режиссер: Денис Скворцов, Павел Мальков--В ролях: Елена Пирогова-Филиппова, Андрей Ургант, Сергей Перегудов, Алексей Барабаш, Станислав Белозеров, Дмитрий Кузеняткин, Алёна Артёмова, Марк Гаврилов, Елена Симонова, Валерий Кухарешин, Александра Мареева (II), Андрей Астраханцев, Сэм Петров, Александр Богурдович, Вадим Лымарь, Евгений Савельев (II), Вера Коваленко, Владимир Селезнёв (II), Саша Чигирь, Дарья Скребнева и др.--Описание: Мистическая история по мотивам американского телесериала "Tru calling" . Что приводит нас к порогу, перед которым повернуть назад практически невозможно? Можно ли исправить свои ошибки и начать жизнь с чистого листа? Рита, главная героиня сериала, унаследовала от матери старинный браслет, который просто упал с руки погибшей женщины, при жизни же она его никогда не снимала. Девушка надела браслет и поняла, что теперь может слышать голоса умерших, вернее, их крики о помощи, а также перемещаться во времени, всего на сутки, но для нее этого достаточно, чтобы успеть предотвратить чью-то смерть. Рита быстро осознает, что браслет снять не удастся и от странного дара никуда не деться. Тогда она устраивается на работу в морг, чтобы быть ближе к тем, кому нужна ее помощь. Но в мире все стремится к равновесию. И если есть тот, кто бездумно спасает всех, то где-то должен быть и тот, кто этому мешает. В жизни Риты появляется новый человек – Артур. Он тоже носит похожий браслет и тоже путешествует во времени, но его задача - помешать спасению. Таким образом, сохраняется баланс между добром и злом, между смертью и жизнью.--Качество: DVB (53.0°E Express AM22)
Формат: MPEG
Видео кодек: MPEG2
Аудио кодек: MPEG Audio
Видео: MPEG2 Video 720x576 (4:3) 25.00fps ~3241 Kbps, 0.311 bit/pixel
Аудио: 2 channels, MPEG Audio 48000Hz stereo 192 Kbps

MediaInfo

01_Я ОТМЕНЯЮ СМЕРТЬ_IPTV_DVB_ТВ3_РОССИЯ_by_volklive.mpg
General
Complete name : D:\Я ОТМЕНЯЮ СМЕРТЬ_DVB_ТВ3_РОССИЯ_by_galebcev\01_Я ОТМЕНЯЮ СМЕРТЬ_IPTV_DVB_ТВ3_РОССИЯ_by_volklive.mpg
Format : MPEG-PS
File size : 1.13 GiB
Duration : 46mn 5s
Overall bit rate mode : Variable
Overall bit rate : 3 503 Kbps
Writing library : (c) 1998-2011 Womble Multimedia, Inc. / MPEG Video Wizard DVD 5.0.1.100 (03/2011) / Sep 2 2011
Video
ID : 224 (0xE0)
Format : MPEG Video
Format version : Version 2
Format profile : Main@Main
Format settings, BVOP : Yes
Format settings, Matrix : Custom
Format settings, GOP : Variable
Duration : 46mn 5s
Bit rate mode : Variable
Bit rate : 3 241 Kbps
Maximum bit rate : 3 482 Kbps
Width : 720 pixels
Height : 576 pixels
Display aspect ratio : 4:3
Frame rate : 25.000 fps
Standard : PAL
Color space : YUV
Chroma subsampling : 4:2:0
Bit depth : 8 bits
Scan type : Progressive
Compression mode : Lossy
Bits/(Pixel*Frame) : 0.313
Stream size : 1.04 GiB (93%)
Alignment : (c) 1998-2011 Womble Multimedia, Inc. / MPEG Video Wizard DVD 5.0.1.100 (03/2011) / Sep 2 2011
Title : (c) 1998-2011 Womble Multimedia, Inc. / MPEG Video Wizard DVD 5.0.1.100 (03/2011) / Sep 2 2011
Writing library : (c) 1998-2011 Womble Multimedia, Inc. / MPEG Video Wizard DVD 5.0.1.100 (03/2011) / Sep 2 2011
Color primaries : BT.601 PAL
Transfer characteristics : BT.470 System B, BT.470 System G
Matrix coefficients : BT.601
Audio
ID : 192 (0xC0)
Format : MPEG Audio
Format version : Version 1
Format profile : Layer 2
Duration : 46mn 5s
Bit rate mode : Constant
Bit rate : 192 Kbps
Channel(s) : 2 channels
Sampling rate : 48.0 KHz
Compression mode : Lossy
Delay relative to video : -40ms
Stream size : 63.3 MiB (5%)

_________________
[Торрент-статистика]
[Профиль]  [ЛС] 
Показать сообщения:    
Ответить на тему

Текущее время: Сегодня 10:09

Часовой пояс: GMT + 4



Вы не можете начинать темы
Вы не можете отвечать на сообщения
Вы не можете редактировать свои сообщения
Вы не можете удалять свои сообщения
Вы не можете голосовать в опросах
Вы не можете прикреплять файлы к сообщениям
Вы не можете скачивать файлы